Files
ESE/01 Pop/San Ren/San Ren.tja
T

62 lines
2.0 KiB
Plaintext

//TJADB Project
TITLE:San Ren
TITLEZH:仨人
SUBTITLE:--Christine Fan & Claire Kuo & Angela Chang/Full House
BPM:75
WAVE:San Ren.ogg
OFFSET:-12.170
DEMOSTART:63.370
COURSE:Oni
LEVEL:5
BALLOON:15
SCOREINIT:1840
SCOREDIFF:450
#START
100000000000200000000000100000200000200000200000,
500000000000000000000008000000000000000000000000,
100000000000200000000000100000200000200000100000,
500000000000000000000008000000000000000000000000,
100000000100200000100100000000100000100000000000,
100000000100200000100100000000100100100000000000,
100200000100200000100500000000000000008000000000,
100200000100200000200500000000000000008000000000,
100000000100200000100000000000100000200000100000,
100000000100500000000000000000000008000000000000,
100000000100200000100000100000200000200000200000,
100000200500000000000000000000008000000000000000,
100000000100200000100000000100000000100000000000,
100000000100200000100000100000000000100000000000,
100200000100200000100500000000000000008000000000,
100200000100200000200500000000000000008000000000,
100000100000200000100000100000100000200000100000,
500000000000000000000000000000000008000000000000,
100000100000200000100000100000200000200000100000,
500000000000000000000000000000000008000000000000,
100000100000200000100000100000100000200000100000,
500000000000000000000000000000000008000000000000,
300000000000300000000000400000000000400000000000,
300000000000300000000000400000000000400000000000,
600000000000000000000000000000000008000000000000,
100000000100000000000000200000000200000000000000,
#GOGOSTART
100100000100200000000000100100000100200000000000,
100100000100500000000000000000000008000000000000,
100100000100200000100000100100000100200000100000,
500000000000000000000000000000000008000000000000,
300000000000300000000000400000000000400000000000,
300000000000300000000000600000000000000000000000,
000000000000000000000800000000000000000000000000,
700000000000000000000000000000000000000000000008,
#GOGOEND
#END