429 lines
5.9 KiB
Plaintext
429 lines
5.9 KiB
Plaintext
//TJADB Project
|
|
TITLE:Sayonara Crawl
|
|
TITLEJA:さよならクロール
|
|
SUBTITLE:--AKB48/PaPiCO
|
|
SUBTITLEJA:「パピコ」CMソング
|
|
BPM:145
|
|
WAVE:Sayonara Crawl.ogg
|
|
OFFSET:-1.909
|
|
DEMOSTART:14.831
|
|
|
|
COURSE:Oni
|
|
LEVEL:6
|
|
SCOREINIT:480
|
|
SCOREDIFF:110
|
|
|
|
|
|
#START
|
|
|
|
|
|
20020020,
|
|
20020020,
|
|
22220020,
|
|
22220020,
|
|
3,
|
|
33300000,
|
|
30030030,
|
|
0030000030004011,
|
|
|
|
#GOGOSTART
|
|
1022201110222011,
|
|
1022201110001011,
|
|
11210020,
|
|
2020004000404011,
|
|
1022201110004000,
|
|
1022201110222030,
|
|
3000303030030030,
|
|
600000000000000000000000000008000000000000100100,
|
|
1022201110222011,
|
|
1022201110001011,
|
|
11210020,
|
|
20240441,
|
|
1001201010012010,
|
|
1001201000200010,
|
|
1002201010022010,
|
|
4000300030030030,
|
|
600000000000000000000000000000000000000000000008,
|
|
|
|
#GOGOEND
|
|
,
|
|
|
|
#GOGOSTART
|
|
30001212,
|
|
02022020,
|
|
10202121,
|
|
01011020,
|
|
30401212,
|
|
02022020,
|
|
34434434,
|
|
43443040,
|
|
|
|
#GOGOEND
|
|
2020220220202000,
|
|
2020220220202000,
|
|
2020220220202000,
|
|
2020220220202000,
|
|
2022202020222020,
|
|
2022202020222020,
|
|
03030303,
|
|
03330330,
|
|
1020120210201000,
|
|
1020120210201000,
|
|
1020120210201040,
|
|
04040400,
|
|
1020102010221000,
|
|
1020102010221000,
|
|
33030400,
|
|
0120102210210000,
|
|
10211020,
|
|
10210100,
|
|
10211021,
|
|
01020000,
|
|
1001201010002010,
|
|
1001201010000000,
|
|
1001201010012010,
|
|
1001201010012050,
|
|
000000000000000000000000000000000008000000000000,
|
|
4000000000000011,
|
|
|
|
#GOGOSTART
|
|
1022201110222011,
|
|
1022201110001011,
|
|
11210020,
|
|
2020004000404011,
|
|
1022201110004000,
|
|
1022201110030030,
|
|
3000303030030030,
|
|
600000000000000000000000000008000000000000100100,
|
|
1022201110222011,
|
|
1022201110001011,
|
|
11210120,
|
|
20240441,
|
|
1001201010012010,
|
|
1001201000200010,
|
|
1002201010022010,
|
|
4000300030030030,
|
|
30033030,
|
|
600000000000000000000000000008000000000000000000,
|
|
|
|
#GOGOEND
|
|
|
|
|
|
#END
|
|
|
|
|
|
COURSE:Hard
|
|
LEVEL:5
|
|
BALLOON:13,10,13
|
|
SCOREINIT:570
|
|
SCOREDIFF:120
|
|
|
|
|
|
#START
|
|
|
|
|
|
20020020,
|
|
20020020,
|
|
22220020,
|
|
22220020,
|
|
3,
|
|
33300000,
|
|
30030030,
|
|
0030000040004011,
|
|
|
|
#GOGOSTART
|
|
1000001110000011,
|
|
1000001110001010,
|
|
11010020,
|
|
2020002000202011,
|
|
1000001110004000,
|
|
3000001110003030,
|
|
3000303030030030,
|
|
6000000000000000000000000000000000000008000000000000000010001000,
|
|
1000001110000011,
|
|
1000001110001010,
|
|
10110020,
|
|
20220221,
|
|
1001001010010010,
|
|
10010001,
|
|
1001001010010010,
|
|
4000300030030030,
|
|
9,
|
|
|
|
#GOGOEND
|
|
8,
|
|
|
|
#GOGOSTART
|
|
30001212,
|
|
02022020,
|
|
10202121,
|
|
01011010,
|
|
30401212,
|
|
02022020,
|
|
34434434,
|
|
43443030,
|
|
|
|
#GOGOEND
|
|
10110121,
|
|
00011221,
|
|
5000000000000000000000000000000000000000000000000000000000000008,
|
|
0001,
|
|
10110121,
|
|
01210121,
|
|
02020202,
|
|
02220220,
|
|
10110121,
|
|
00011221,
|
|
5000000000000000000000000000000000000000000000000000000000000008,
|
|
00000002,
|
|
20220222,
|
|
00030030,
|
|
7008,
|
|
,
|
|
10111020,
|
|
10110100,
|
|
10111012,
|
|
02020011,
|
|
10110201,
|
|
10110020,
|
|
10110121,
|
|
00110125,
|
|
0000000000000000000000000000000000000000000000080000000000000000,
|
|
4000000000000011,
|
|
|
|
#GOGOSTART
|
|
1000001110000011,
|
|
1000001110001010,
|
|
11010020,
|
|
2020002000202011,
|
|
1000002220004000,
|
|
3000002220030030,
|
|
3000303030030030,
|
|
6000000000000000000000000000000000000008000000000000000010001000,
|
|
1000002220000011,
|
|
1000002220001010,
|
|
10110020,
|
|
20220221,
|
|
1001001010010010,
|
|
10010001,
|
|
1001001010010010,
|
|
4000300030030030,
|
|
9,
|
|
8,
|
|
|
|
#GOGOEND
|
|
|
|
|
|
#END
|
|
|
|
|
|
COURSE:Normal
|
|
LEVEL:4
|
|
BALLOON:10,7,10
|
|
SCOREINIT:650
|
|
SCOREDIFF:160
|
|
|
|
|
|
#START
|
|
|
|
|
|
,
|
|
,
|
|
,
|
|
,
|
|
3,
|
|
33300000,
|
|
30030060,
|
|
0000000000000000000000000000000800000000000000000000000030000000,
|
|
|
|
#GOGOSTART
|
|
30033003,
|
|
30033000,
|
|
5000000000000000000000000000000000000000000000000000000000000008,
|
|
00000003,
|
|
30033000,
|
|
30033000,
|
|
3330,
|
|
6000000000000000000000000000000000000008000000000000000030000000,
|
|
30033003,
|
|
30033000,
|
|
5000000000000000000000000000000000000000000000080000000000000000,
|
|
5000000000000000000000000000000000000008000000000000000000000000,
|
|
10111010,
|
|
20020000,
|
|
10111010,
|
|
4330,
|
|
9,
|
|
|
|
#GOGOEND
|
|
8,
|
|
|
|
#GOGOSTART
|
|
3011,
|
|
2222,
|
|
1022,
|
|
1111,
|
|
1011,
|
|
2222,
|
|
30030030,
|
|
03003030,
|
|
|
|
#GOGOEND
|
|
11,
|
|
10001011,
|
|
5000000000000000000000000000000000000000000000000000000000000008,
|
|
,
|
|
1122,
|
|
1122,
|
|
,
|
|
,
|
|
11,
|
|
10001011,
|
|
5000000000000000000000000000000000000000000000000000000000000008,
|
|
,
|
|
2222,
|
|
00030030,
|
|
7008,
|
|
,
|
|
10011000,
|
|
20022000,
|
|
10011000,
|
|
20022000,
|
|
10110000,
|
|
10110000,
|
|
10110101,
|
|
00110115,
|
|
0000000000000000000000000000000000000000000000080000000000000000,
|
|
40000003,
|
|
|
|
#GOGOSTART
|
|
30033003,
|
|
30033000,
|
|
5000000000000000000000000000000000000000000000000000000000000008,
|
|
00000003,
|
|
30033000,
|
|
30033000,
|
|
3330,
|
|
6000000000000000000000000000000000000008000000000000000030000000,
|
|
30033003,
|
|
30033000,
|
|
5000000000000000000000000000000000000000000000080000000000000000,
|
|
5000000000000000000000000000000000000000000000080000000000000000,
|
|
10111010,
|
|
20020000,
|
|
10111010,
|
|
4330,
|
|
9,
|
|
8,
|
|
|
|
#GOGOEND
|
|
|
|
|
|
#END
|
|
|
|
|
|
COURSE:Easy
|
|
LEVEL:3
|
|
BALLOON:6,4,6
|
|
SCOREINIT:600
|
|
SCOREDIFF:150
|
|
|
|
|
|
#START
|
|
|
|
|
|
,
|
|
,
|
|
,
|
|
,
|
|
3,
|
|
3300,
|
|
30030060,
|
|
0000000000000000000000000000000000000008000000000000000000000000,
|
|
|
|
#GOGOSTART
|
|
33,
|
|
33,
|
|
5000000000000000000000000000000000000000000000000000000000000008,
|
|
,
|
|
33,
|
|
33,
|
|
3330,
|
|
6000000000000000000000000000000000000008000000000000000000000000,
|
|
33,
|
|
33,
|
|
5000000000000000000000000000000000000000000000080000000000000000,
|
|
5000000000000000000000000000000000000008000000000000000000000000,
|
|
1110,
|
|
22,
|
|
1110,
|
|
3330,
|
|
9,
|
|
|
|
#GOGOEND
|
|
8,
|
|
|
|
#GOGOSTART
|
|
31,
|
|
1110,
|
|
22,
|
|
2220,
|
|
11,
|
|
1110,
|
|
30030030,
|
|
03003030,
|
|
|
|
#GOGOEND
|
|
11,
|
|
1011,
|
|
5000000000000000000000000000000000000000000000000000000000000008,
|
|
,
|
|
11,
|
|
1011,
|
|
,
|
|
,
|
|
11,
|
|
1011,
|
|
5000000000000000000000000000000000000000000000000000000000000008,
|
|
,
|
|
22,
|
|
2022,
|
|
7008,
|
|
,
|
|
12,
|
|
1,
|
|
12,
|
|
1,
|
|
1110,
|
|
1110,
|
|
11,
|
|
10101005,
|
|
0000000000000000000000000000000000000000000000000000000000000008,
|
|
,
|
|
|
|
#GOGOSTART
|
|
33,
|
|
33,
|
|
5000000000000000000000000000000000000000000000000000000000000008,
|
|
,
|
|
33,
|
|
33,
|
|
3330,
|
|
6000000000000000000000000000000000000008000000000000000000000000,
|
|
33,
|
|
33,
|
|
5000000000000000000000000000000000000000000000080000000000000000,
|
|
5000000000000000000000000000000000000008000000000000000000000000,
|
|
1110,
|
|
22,
|
|
1110,
|
|
3330,
|
|
9,
|
|
8,
|
|
|
|
#GOGOEND
|
|
|
|
|
|
#END
|
|
|