291 lines
8.2 KiB
Plaintext
291 lines
8.2 KiB
Plaintext
//TJADB Project
|
|
TITLE:Shen Me Dong Xi
|
|
TITLEZH:什麼東西
|
|
SUBTITLE:--Kenji Wu
|
|
BPM:102
|
|
WAVE:Shen Me Dong Xi.ogg
|
|
OFFSET:-3.077
|
|
DEMOSTART:40.724
|
|
|
|
COURSE:Oni
|
|
LEVEL:7
|
|
BALLOON:25
|
|
SCOREINIT:710
|
|
SCOREDIFF:180
|
|
|
|
|
|
#START
|
|
|
|
|
|
100000100100200000100200000200000200100000200000,
|
|
100000100100200000100200000200000200100000200000,
|
|
100000100100200000100200000200000200100000200000,
|
|
100000100100200000000000202020101010102000000000,
|
|
100000000000200000100100000000100000200000200000,
|
|
100000000000200000100100000200100000200200200000,
|
|
100000000000200000100100000000100000200000200000,
|
|
100000100100200100000100000000100200200200100000,
|
|
100000100100200000100100000000100000200000100000,
|
|
100000100100200000100100000200100000200000100000,
|
|
100000100100200000100100000200100000200000100000,
|
|
100000100100200100000100000000100200200200100000,
|
|
100000200100000200100000000100200000100100000000,
|
|
100000200100000200100000000100200000100100000000,
|
|
100000200200100000200100000100200000100100000000,
|
|
#BPMCHANGE 101.89
|
|
100000100100200100000100100100100100200000000000,
|
|
|
|
#GOGOSTART
|
|
#BPMCHANGE 102
|
|
100200100000200000100200100000200000100100000000,
|
|
100200100000200000100200100000200000100100200000,
|
|
100200100000200000100200100000200000100100100000,
|
|
100000200200100000100100100000100000100200000000,
|
|
100200100000200000100200100000200000100100000000,
|
|
100200100000200000100200100000200000100100200000,
|
|
100200100000200000100200100000200000100100100000,
|
|
100000200200100000200000200200100100100200000000,
|
|
|
|
#GOGOEND
|
|
100000000100200000100000000100100000200200200000,
|
|
100000000100200000100000000100100000200200200000,
|
|
100000000100200000100000000100100000200200200000,
|
|
100000200200100000200200100000200200100000000000,
|
|
100000000100200000100100000100100000200200200000,
|
|
100000000100200000100100000100100000200200200000,
|
|
100000000100200000100100000100100000200200200000,
|
|
100000200200100000200200100000200200100000200000,
|
|
#BPMCHANGE 102.31
|
|
500000000000000000000000000000000000000000000008,
|
|
#BPMCHANGE 102
|
|
000000000000000000400000000000000000000000000000,
|
|
|
|
#GOGOSTART
|
|
100000200000100000200200100000200000100200000000,
|
|
100000200000100000200200100000200000100200000000,
|
|
100000200000100000200200100000200000100200000000,
|
|
100000200000100000200200100100100100100200000000,
|
|
100000200000100000200200100000200000100200000000,
|
|
100000200000100000200200100000200000100200000000,
|
|
100000200000100000200200100000200000100200000000,
|
|
100000000100200000100200100000100100100200000000,
|
|
000000000000000000000000700000000000000000000000,
|
|
000000000000000000000000800000000000300000000000,
|
|
|
|
#GOGOEND
|
|
|
|
|
|
#END
|
|
|
|
|
|
COURSE:Hard
|
|
LEVEL:5
|
|
BALLOON:18
|
|
SCOREINIT:790
|
|
SCOREDIFF:200
|
|
|
|
|
|
#START
|
|
|
|
|
|
1002201000102000,
|
|
1002201000102000,
|
|
1002201000102000,
|
|
100000000200200000100000500000000000000008000000,
|
|
10210122,
|
|
10210122,
|
|
10210122,
|
|
1000110100101110,
|
|
11210121,
|
|
11210121,
|
|
11210121,
|
|
10210000,
|
|
12110000,
|
|
12110000,
|
|
12110000,
|
|
#BPMCHANGE 101.89
|
|
1010201011102000,
|
|
|
|
#GOGOSTART
|
|
#BPMCHANGE 102
|
|
1110201110102000,
|
|
1110201110102000,
|
|
1110201110102000,
|
|
1000101110102000,
|
|
1110201110102000,
|
|
1110201110102000,
|
|
1110201110102000,
|
|
1000101110102200,
|
|
|
|
#GOGOEND
|
|
10211120,
|
|
10211120,
|
|
10211122,
|
|
1000100010111010,
|
|
10211120,
|
|
10211120,
|
|
10211122,
|
|
10101122,
|
|
#BPMCHANGE 102.31
|
|
500000000000000000000000000000000000000000000008,
|
|
#BPMCHANGE 102
|
|
0003,
|
|
|
|
#GOGOSTART
|
|
1000102010101100,
|
|
1000102010101100,
|
|
1000102010101100,
|
|
1000102010111000,
|
|
1000102010101100,
|
|
1000102010101100,
|
|
1000102010101100,
|
|
1001001110111100,
|
|
08,
|
|
0083,
|
|
|
|
#GOGOEND
|
|
|
|
|
|
#END
|
|
|
|
|
|
COURSE:Normal
|
|
LEVEL:3
|
|
BALLOON:10
|
|
SCOREINIT:1070
|
|
SCOREDIFF:340
|
|
|
|
|
|
#START
|
|
|
|
|
|
100000000000000000100000100000000000200000000000,
|
|
100000000000100000000000100000000000000000000000,
|
|
100000000000000000100000100000000000200000000000,
|
|
100000000000100000000000100000000000000000000000,
|
|
100000000000100000000000000000100000100000000000,
|
|
100000000000100000000000000000100000100000000000,
|
|
100000000000100000000000100000000000100000000000,
|
|
100000000000000000000000000000000000000000000000,
|
|
100000000000100000000000000000100000100000000000,
|
|
100000000000100000000000000000100000100000000000,
|
|
100000000000100000000000100000000000100000000000,
|
|
100000000000000000000000000000000000000000000000,
|
|
100000000000200000200000000000000000000000000000,
|
|
100000000000200000200000000000000000000000000000,
|
|
100000000000200000200000000000000000000000000000,
|
|
#BPMCHANGE 101.89
|
|
100000000000000000000000300000000000000000000000,
|
|
|
|
#GOGOSTART
|
|
#BPMCHANGE 102
|
|
100000100000100000000000100000000000000000000000,
|
|
100000100000100000000000100000000000000000000000,
|
|
100000100000100000000000100000000000100000000000,
|
|
100000000000000000000000200000000000000000000000,
|
|
100000100000100000000000100000000000000000000000,
|
|
100000100000100000000000100000000000000000000000,
|
|
100000100000100000000000100000000000100000000000,
|
|
100000000000000000000000200000000000000000000000,
|
|
|
|
#GOGOEND
|
|
100000000000200000000000100000000000200000000000,
|
|
100000000000200000000000100000000000000000000000,
|
|
100000000000200000000000100000000000200000000000,
|
|
100000000000000000000000000000000000000000000000,
|
|
100000000000200000000000100000000000200000000000,
|
|
100000000000200000000000100000000000000000000000,
|
|
100000000000200000000000100000000000200000000000,
|
|
300000000000000000000000300000000000000000000000,
|
|
#BPMCHANGE 102.31
|
|
600000000000000000000000000000000000800000000000,
|
|
#BPMCHANGE 102
|
|
000000000000000000000000000000000000000000000000,
|
|
|
|
#GOGOSTART
|
|
100000000000200000000000100000100000000000000000,
|
|
100000000000200000000000100000100000000000000000,
|
|
100000000000200000000000100000100000000000000000,
|
|
100000000000100000000000100000000000000000000000,
|
|
100000000000200000000000100000100000000000000000,
|
|
100000000000200000000000100000100000000000000000,
|
|
100000000000200000000000100000100000000000000000,
|
|
100000000000100000000000100000000000000000000000,
|
|
000000000000000000000000700000000000000000000000,
|
|
0008,
|
|
|
|
#GOGOEND
|
|
|
|
|
|
#END
|
|
|
|
|
|
COURSE:Easy
|
|
LEVEL:3
|
|
BALLOON:5
|
|
|
|
|
|
#START
|
|
|
|
|
|
100000000000000000000000100000000000100000000000,
|
|
100000000000000000000000000000000000000000000000,
|
|
100000000000000000000000100000000000100000000000,
|
|
100000000000000000000000000000000000000000000000,
|
|
100000000000100000000000000000000000000000000000,
|
|
100000000000100000000000000000000000000000000000,
|
|
100000000000000000000000100000000000000000000000,
|
|
100000000000100000000000000000000000000000000000,
|
|
100000000000100000000000000000000000000000000000,
|
|
100000000000100000000000000000000000000000000000,
|
|
100000000000000000000000100000000000000000000000,
|
|
100000000000100000000000000000000000000000000000,
|
|
100000000000100000000000000000000000000000000000,
|
|
200000000000200000000000000000000000000000000000,
|
|
100000000000100000000000000000000000000000000000,
|
|
#BPMCHANGE 101.89
|
|
100000000000000000000000100000000000000000000000,
|
|
|
|
#GOGOSTART
|
|
#BPMCHANGE 102
|
|
100000000000100000000000100000000000000000000000,
|
|
100000000000100000000000100000000000000000000000,
|
|
100000000000100000000000100000000000000000000000,
|
|
100000000000000000000000200000000000000000000000,
|
|
100000000000100000000000100000000000000000000000,
|
|
100000000000100000000000100000000000000000000000,
|
|
100000000000100000000000100000000000000000000000,
|
|
100000000000000000000000200000000000000000000000,
|
|
|
|
#GOGOEND
|
|
000000000000100000000000100000000000100000000000,
|
|
000000000000100000000000100000000000000000000000,
|
|
000000000000100000000000100000000000100000000000,
|
|
100000000000000000000000100000000000100000000000,
|
|
000000000000100000000000100000000000100000000000,
|
|
000000000000100000000000100000000000100000000000,
|
|
000000000000100000000000100000000000000000000000,
|
|
300000000000000000000000300000000000000000000000,
|
|
#BPMCHANGE 102.31
|
|
600000000000000000000000000000000000000000000008,
|
|
#BPMCHANGE 102
|
|
000000000000000000000000000000000000000000000000,
|
|
|
|
#GOGOSTART
|
|
100000000000100000000000100000000000000000000000,
|
|
100000000000100000000000100000000000000000000000,
|
|
100000000000100000000000100000000000000000000000,
|
|
100000000000000000000000000000000000000000000000,
|
|
100000000000100000000000100000000000000000000000,
|
|
100000000000100000000000100000000000000000000000,
|
|
100000000000100000000000100000000000000000000000,
|
|
100000000000000000000000000000000000000000000000,
|
|
000000000000000000000000700000000000000000000000,
|
|
0008,
|
|
|
|
#GOGOEND
|
|
|
|
|
|
#END
|
|
|