Files
ESE/01 Pop/Silent Majority/Silent Majority.tja
T
2023-06-15 19:05:10 -05:00

286 lines
4.7 KiB
Plaintext

//TJADB Project
TITLE:Silent Majority
TITLEJA:サイレントマジョリティー
SUBTITLE:--Sakurazaka46/mechakari
BPM:123
WAVE:Silent Majority.ogg
OFFSET:-8.399
DEMOSTART:68.388
COURSE:Oni
LEVEL:6
BALLOON:12,16
SCOREINIT:970
SCOREDIFF:220
#START
11211200,
12211200,
11211200,
12211200,
7008,
500000000000000000000000000000000008000000000000,
1001000020020000,
1001000020020000,
1001000020020000,
500000000000000000000008000000000000000000000000,
1001000020020000,
1001000020020000,
1001002010010020,
500000000000000000000008000000000000000000000000,
1001201010012020,
1001201010022020,
1001201010012020,
500000000000000000000008000000000000000000000000,
1001201010012020,
1001201010022020,
1001201010012020,
500000000000000000000000000000000008000000000000,
1001001000102000,
1001001000102000,
3003003040040040,
600000000000000000000008000000000000200000000000,
10401012,
12121212,
1001002010012210,
#MEASURE 3/4
7,
#MEASURE 4/4
8,
#GOGOSTART
#MEASURE 4/4
1020101110201022,
1020111110201022,
1020102210201022,
500000000000000000000008000000100000100000100200,
1020101110201022,
1020111110201022,
1011102220102010,
500000000000000000000000000000000008000000000000,
1020101110201022,
1020112210201022,
1020102210201022,
500000000000000000000008000000100000100000100200,
1020101110201022,
1020112210201022,
1011102220102010,
500000000000000000000000000000000008000000000000,
#GOGOEND
1021201020201111,
2012012000000000,
#END
COURSE:Hard
LEVEL:4
BALLOON:10,13
SCOREINIT:950
SCOREDIFF:280
#START
11201200,
11202200,
11201200,
11202200,
7008,
500000000000000000000000000000000008000000000000,
1001000010000000,
1001000020000000,
1001000010000000,
500000000000000000000008000000000000000000000000,
1001000010000000,
1001000020000000,
1001000010000000,
500000000000000000000008000000000000000000000000,
1001000010010000,
1001000020020000,
1001000010010000,
500000000000000000000008000000000000000000000000,
1001000010010000,
1001000020020000,
1001000010010000,
500000000000000000000000000000000008000000000000,
1001001000002000,
1001001000002000,
1001001020020020,
600000000000000000000008000000000000200000000000,
1401,
1300,
4004000030030000,
#MEASURE 3/4
7,
#MEASURE 4/4
8,
#GOGOSTART
1000101110101000,
1000101110202000,
1000101110101000,
500000000000000000000008000000000000000000000000,
1000101110101000,
1000101110202000,
1011101000102010,
500000000000000000000000000000000008000000000000,
1010101110101000,
1010101110202000,
1010101110101000,
500000000000000000000008000000000000000000000000,
1010101110101000,
1010101110202000,
1011101000102010,
500000000000000000000000000000000008000000000000,
#GOGOEND
3003003000000000,
4004004000000000,
#END
COURSE:Normal
LEVEL:4
BALLOON:9,9
#START
1110,
1210,
1110,
1210,
7008,
500000000000000000000000000000000008000000000000,
1001000000000000,
1001000020000000,
1001000000000000,
500000000000000000000008000000000000000000000000,
1001000000000000,
1001000020000000,
1001000000000000,
500000000000000000000008000000000000000000000000,
1001000010000000,
1001000020000000,
1001000010000000,
500000000000000000000008000000000000000000000000,
1001000010000000,
1001000020000000,
1001000010000000,
500000000000000000000000000000000008000000000000,
1001001000000000,
1001001000000000,
12,
600000000000000000000008000000000000200000000000,
1401,
1300,
43,
#MEASURE 3/4
909,
#MEASURE 4/4
8,//31
#GOGOSTART
10101110,
1210,
10101110,
500000000000000000000008000000000000000000000000,
10101110,
1210,
10101110,
500000000000000000000000000000000008000000000000,
10101110,
1212,
10101110,
500000000000000000000008000000000000000000000000,
10101110,
1212,
10101110,
500000000000000000000000000000000008000000000000,//47
#GOGOEND
3003003000000000,
4004004000000000,
,
,
,
,
,
#END
COURSE:Easy
LEVEL:2
BALLOON:8,8
#START
11,
1110,
11,
1110,
7008,
500000000000000000000000000008000000000000000000,
12,
12,
12,
500000000000000000000008000000000000000000000000,
12,
12,
12,
500000000000000000000008000000000000000000000000,
1100,
1100,
1100,
500000000000000000000008000000000000000000000000,
2200,
2200,
2200,
500000000000000000000000000008000000000000000000,
10010000,
10010000,
12,
600000000000000000000008000000000000000000000000,
0400,
0300,
43,
#MEASURE 3/4
909,
#MEASURE 4/4
8,//31
#GOGOSTART
1110,
1210,
1202,
500000000000000000000008000000000000000000000000,
1110,
1210,
1202,
500000000000000000000000000008000000000000000000,
1110,
1210,
1202,
500000000000000000000008000000000000000000000000,
1110,
1210,
1202,
500000000000000000000000000008000000000000000000,//47
#GOGOEND
30030000,
40040000,
,
,
,
,
,
#END