Files
ESE/01 Pop/Strawberry melody/Strawberry melody.tja
T
2023-06-15 19:15:39 -05:00

299 lines
11 KiB
Plaintext

//TJADB Project
TITLE:Strawberry melody
TITLEJA:ストロベリmelody
SUBTITLE:--Shoko Nakagawa/Wanagona & Pokémon☆Sunday
BPM:126
WAVE:Strawberry melody.ogg
OFFSET:-5.431
DEMOSTART:20.659
COURSE:Oni
LEVEL:6
SCOREINIT:670
SCOREDIFF:170
#START
100000000000100000200000100000000000200000000000,
100000000000000000200000000000000000000000000000,
100000000000000000100000000000000000200000000000,
100000000000100000200000000000200000200200100000,
100000000000200000100000200200100000200000200200,
100000000000200000100000200200100000200000200200,
100000000000200000100000200200100000200000000000,
400000000000300000000000400000400000300000000000,
#GOGOSTART
100000000000200000100000200200100000200000100000,
200000000000200000100000200200100000200000000000,
100000100100100000100000200000200200200000200000,
100100100100200200200200100100200200100000200000,
100000000000200000100000200200100000200000100000,
200000000000200000100000200200100000200000100000,
100000100000200000200000400000000000300000000000,
600000000000000000000000000000000008000000000000,
#GOGOEND
200200000200000200000200200000100000200000000000,
100100000100000100000100100000100000200000000000,
200200000200000200000200200000100000200000000000,
300000000000200000000000200000100000200200100000,
100000000000200000100000100100100000200000000000,
100000100000200000000000100100100100200000200200,
100000000000200000100000100100100000200000000000,
100000100100200000100000100100100100200000200200,
100000000000200000100000100100100000200000000000,
100000100000200000000000100100100100200000200200,
100000000000200000100000100100100000200000000000,
100000000000200000000200100000200000200200100000,
100000000000200000100000100100100000200000000000,
100000100000200000000000100100100100200000200200,
100000000000200000100000100100100000200000000000,
100000100100200000100000100100100100200000200200,
100000000000200000100000100100100000200000000000,
100000100000200000000000100100100100200000200200,
100000000000200000100000100100100000200000100000,
000000100000100000200100000000100000100000100000,
300000000300000000300000000000200200100000000000,
100000000100100000100200100200200200200000000000,
400000000400000000400000000000200200100000000000,
100000000100100000100200100200200200200000000000,
100000000000100000100000000000200000000000200000,
000000200000100000000000100000200100000000000000,
100000000000100000200000000000100000000000100000,
000000200000100000200000100000200000100000200000,
300000000000000000000000000000400000200200100000,
#GOGOSTART
100000000000200000100000200200100000200000100000,
200000000000200000100000200200100000200000000000,
100000100100100000100000200000200200200000200000,
100100100100200200200200100100200200100000200000,
100000000000200000100000200200100000200000100000,
200000000000200000100000200200100000200000100000,
100000100000200000200000400000000000300000000000,
600000000000000000000000000000000008000000000000,
#GOGOEND
#END
COURSE:Hard
LEVEL:5
SCOREINIT:770
SCOREDIFF:190
#START
100000000000100000100000100000000000200000000000,
100000000000000000200000000000000000000000000000,
100000000000000000100000000000000000200000000000,
100000000000000000200000000000200000200200200000,
100000000000200000100000200000000000200000000000,
100000000000200000100000200000000000200000000000,
100000000000200000100000200000000000200000000000,
400000000000300000000000400000400000400000000000,
#GOGOSTART
100000000000100000200000100000200000100000200000,
100000000000100000200000100000200000100000200000,
100000000000100000100000100000000000200000000000,
100000000000100000100000100000000000200000000000,
100000000000100000200000100000200000100000200000,
100000000000100000200000100000200000100000200000,
100000100000100000000000400000000000300000000000,
600000000000000000000000000000800000000000000000,
#GOGOEND
200200000200000200000000200000200000200000000000,
100100000100000100000000100000100000100000000000,
200200000200000200000000200000200000200000000000,
300000000000000000000000000000000000000000000000,
100000000000100000000000100100100000100000000000,
100000000000100000000000100100100000100000000000,
100000000000200000000000100100100000200000000000,
100000000000200000000000100100100000200000000000,
100000000000100000000000100100100000100000000000,
100000000000100000000000100100100000100000000000,
100000000000200000000000100100100000200000000000,
100000000000000000000000000000000000000000000000,
100000100000100000000000100100100000100000000000,
100000100000100000000000100100100000100000000000,
100000100000200000000000100100100000200000000000,
100000100000200000000000100100100000200000000000,
100000100000100000000000100100100000100000000000,
100000100000100000000000100100100000100000000000,
100000100000200000000000100100100000200000000000,
000000100000100000100000000000100000100000100000,
300000000300000000300000000000000000000000000000,
100000000000200000000000100100100000200000000000,
400000000400000000400000000000000000000000000000,
100000000000200000000000100100100000200000000000,
100000000000100000100000000000200000000000200000,
000000200000200000000000100000100100000000000000,
100000000000100000200000000000100000000000100000,
000000200000100000200000100000200000100000200000,
300000000000000000000000000000400000000000000000,
#GOGOSTART
100000000000100000200000100000200000100000200000,
100000000000100000200000100000200000100000200000,
100000000000100000100000100000000000200000000000,
100000000000100000100000100000000000200000000000,
100000000000100000200000100000200000100000200000,
100000000000100000200000100000200000100000200000,
100000100000100000000000400000000000300000000000,
600000000000000000000000000000800000000000000000,
#GOGOEND
#END
COURSE:Normal
LEVEL:4
BALLOON:5,5
SCOREINIT:1180
SCOREDIFF:370
#START
100000000000000000000000100000000000000000000000,
200000000000000000000000200000000000000000000000,
100000000000000000000000100000000000000000000000,
200000000000000000000000200000000000000000000000,
100000000000100000000000100000000000100000000000,
200000000000200000000000200000000000200000000000,
100000000000000000000000100000000000000000000000,
300000000000300000000000300000000000300000000000,
#GOGOSTART
100000000000200000200000000000000000200000200000,
000000000000200000200000000000000000000000000000,
100000000000000000100000100000000000000000000000,
100000000000000000100000100000000000000000000000,
100000000000200000200000000000000000200000200000,
000000000000200000200000000000000000000000000000,
100000000000100000000000200000000000200000000000,
500000000000000000000000000000800000000000000000,
#GOGOEND
100000000000000000000000100000000000100000000000,
100000000000000000000000200000000000200000000000,
100000000000000000000000100000000000100000000000,
700000000000000000800000000000000000000000000000,
100000000000000000000000100000000000000000000000,
100000000000100000000000100000000000000000000000,
100000000000000000000000100000000000000000000000,
100000000000100000000000100000000000000000000000,
100000000000000000000000200000000000000000000000,
100000000000100000000000200000000000000000000000,
100000000000000000000000200000000000000000000000,
500000000000000000800000000000000000000000000000,
100000000000000000000000100000000000000000000000,
100000000000100000000000100000000000000000000000,
100000000000000000000000100000000000000000000000,
200000000000200000000000200000000000000000000000,
100000000000000000000000100000000000000000000000,
100000000000000000000000100000000000000000000000,
100000000000100000000000100000000000100000000000,
500000000000000000000000000000800000000000000000,
100000000100000000100000000000000000000000000000,
200000000000000000000000200000000000000000000000,
100000000100000000100000000000000000000000000000,
200000000000000000000000200000000000000000000000,
100000000000100000000000200000000000000000000000,
100000000000100000000000200000000000200000000000,
100000000000000000000000100000000000000000000000,
500000000000000000000000000000800000000000000000,
300000000000000000000000000000000000000000000000,
#GOGOSTART
100000000000200000200000000000000000200000200000,
000000000000200000200000000000200000000000000000,
100000000000000000100000100000000000000000000000,
100000000000000000100000100000000000100000000000,
100000000000200000200000000000000000200000200000,
000000000000200000200000000000200000000000000000,
100000000000100000000000200000000000200000000000,
9008,
#GOGOEND
#END
COURSE:Easy
LEVEL:3
BALLOON:6
SCOREINIT:900
SCOREDIFF:320
#START
100000000000000000000000000000000000000000000000,
200000000000000000000000000000000000000000000000,
100000000000000000000000000000000000000000000000,
200000000000000000000000000000000000000000000000,
100000000000100000000000100000000000000000000000,
200000000000200000000000200000000000000000000000,
100000000000000000000000100000000000000000000000,
300000000000000000000000300000000000000000000000,
#GOGOSTART
100000000000200000000000000000000000200000000000,
000000000000200000000000000000000000200000000000,
100000000000000000000000100000000000000000000000,
100000000000000000000000100000000000100000000000,
100000000000200000000000000000000000200000000000,
000000000000200000000000000000000000200000000000,
100000000000100000000000100000000000100000000000,
500000000000000000000000800000000000000000000000,
#GOGOEND
100000000000000000000000100000000000100000000000,
100000000000000000000000200000000000000000000000,
100000000000000000000000100000000000000000000000,
300000000000000000000000000000000000000000000000,
100000000000000000000000100000000000000000000000,
100000000000100000000000100000000000000000000000,
100000000000000000000000100000000000000000000000,
100000000000100000000000100000000000000000000000,
100000000000000000000000200000000000000000000000,
100000000000100000000000100000000000000000000000,
100000000000000000000000200000000000000000000000,
500000000000000000000000800000000000000000000000,
100000000000000000000000100000000000000000000000,
100000000000100000000000100000000000000000000000,
100000000000000000000000100000000000000000000000,
100000000000100000000000200000000000000000000000,
100000000000000000000000100000000000000000000000,
100000000000000000000000100000000000000000000000,
100000000000100000000000100000000000100000000000,
500000000000000000000000800000000000000000000000,
100000000100000000100000000000000000000000000000,
200000000000000000000000000000000000000000000000,
100000000100000000100000000000000000000000000000,
200000000000000000000000000000000000000000000000,
100000000000100000000000200000000000000000000000,
100000000000100000000000200000000000000000000000,
100000000000000000000000100000000000000000000000,
500000000000000000000000800000000000000000000000,
300000000000000000000000000000000000000000000000,
#GOGOSTART
100000000000200000000000000000000000200000000000,
000000000000200000000000000000000000200000000000,
100000000000000000000000100000000000000000000000,
100000000000000000000000100000000000100000000000,
100000000000200000000000000000000000200000000000,
000000000000200000000000000000000000200000000000,
100000000000100000000000100000000000100000000000,
9008,
#GOGOEND
#END