463 lines
17 KiB
Plaintext
463 lines
17 KiB
Plaintext
//TJADB Project
|
|
TITLE:Suki Suki Seijin
|
|
TITLEJA:スキスキ星人
|
|
SUBTITLE:--Strawberry Prince & NayutalieN
|
|
SUBTITLEJA:すとぷり / ナユタン星人
|
|
BPM:185
|
|
WAVE:Suki Suki Seijin.ogg
|
|
OFFSET:-2.652
|
|
DEMOSTART:64.908
|
|
BGMOVIE:Suki Suki Seijin.mp4
|
|
|
|
COURSE:Oni
|
|
LEVEL:6
|
|
BALLOON:10,10,10,10,5,5,10
|
|
SCOREINIT:2480
|
|
SCOREDIFF:0
|
|
|
|
|
|
#START
|
|
|
|
|
|
100000000000100000000000100000000000200000000000,
|
|
100000000000100000000000200000000000100000000000,
|
|
100000000000100000000000200000000000200000000000,
|
|
500000000000000000000008000000000000400000000000,
|
|
100000000000100000000000200000100000100000200000,
|
|
100000000000100000000000200000100000200000200000,
|
|
100000000000100000100000100000100000100000100000,
|
|
300000000000300000000000300000100100200000100000,
|
|
|
|
#GOGOSTART
|
|
100000000000200000000000100000200000100000100000,
|
|
100000000000200000000000100000200000100000100000,
|
|
100000000000200000000000100000200000100000100000,
|
|
200000000000200000000000100000100200100000100000,
|
|
100000000000200000000000100000200000100000100000,
|
|
100000000000200000000000100000200000100000100000,
|
|
100000000000200000000000200000200200100000200000,
|
|
700000000000000000000000000000000000800000000000,
|
|
|
|
#GOGOEND
|
|
100000000000000000100000200000000000000000200000,
|
|
100000100000200000100000100000000000100000200000,
|
|
100000000000200000000000200000000000100000100000,
|
|
200000000000100000000000100000200200200000200000,
|
|
100000000000000000100000200000000000000000200000,
|
|
100000000000200000100000100000000000200200200000,
|
|
100000000000200000100000100000000000200000000000,
|
|
300000000000300000000000300000000000000000100000,
|
|
100000000000200000100000100000000000200000100000,
|
|
100000100000200000100000100000000000100000100000,
|
|
100000000000200200200000100100100000100000000000,
|
|
100000200000100000100000200000000000200200200000,
|
|
100000000000200000100000100000000000200000100000,
|
|
100000100100100000100000100000000000200200200000,
|
|
100000100000200000200000100000100000100100100000,
|
|
300000000000400000000000300000000000000000000000,
|
|
100000000000200000100000100000000000200000000000,
|
|
100000000000200000100000100000000000100000000000,
|
|
500000000000000000000000000000000008000000000000,
|
|
700000000000000000000000000000000000800000000000,
|
|
100000000000200000100000100000000000200000000000,
|
|
100000000000200000100000200000000000200000000000,
|
|
500000000000000000000000000000000008000000000000,
|
|
700000000000000000000000000000000000800000000000,
|
|
100000000000200000100000100000000000200000000000,
|
|
100000000000200000100000100000000000100000000000,
|
|
500000000000000000000000000000000008000000000000,
|
|
700000000000000000000000000000000000800000000000,
|
|
100000000000200000000000100000100000100000000000,
|
|
100000000000100000100000100000100000100000000000,
|
|
100000100000100000100000100100100000100100100000,
|
|
100000000000000000000000000000000000000000000000,
|
|
|
|
#GOGOSTART
|
|
100000000000100000000100100000100000200000000000,
|
|
200000000000200000000200200000100000200000000000,
|
|
100000000000100000000000200000000000100000000000,
|
|
500000000000000000000080000000000000400000000000,
|
|
100000000000100000000100100000100000200000000000,
|
|
200000000000200000000200200000100000200000000000,
|
|
100000000000200000000000200000000000100000000000,
|
|
500000000000000000000008000000000000200000000000,
|
|
100000000000100000000100100000100000200000200000,
|
|
100000000000200000000200200000200000100000100000,
|
|
100000000000100000000000200000000000100000000000,
|
|
500000000000000000000008000000000000400000000000,
|
|
100000000000200000100000100000000000200000000000,
|
|
100000000000200000100000200000000000100000100000,
|
|
100000000000200000000000100000000000200000000000,
|
|
300000000000300000000000300000100100200000200000,
|
|
|
|
#GOGOEND
|
|
100000000000200000000000100000100000000000100000,
|
|
000000200000000000700000000000000000800000100000,
|
|
200000100000000000200000100000200000000000100000,
|
|
200000100000100000100000200000000000200000000000,
|
|
100000000000200000000000100000100000000000100000,
|
|
000000200000000000700000000000000000800000100000,
|
|
200000100000000000200000100000200000000000200000,
|
|
100000000000100000000000100000100100200000200000,
|
|
|
|
#GOGOSTART
|
|
100000000000200000000000100000200000100000100000,
|
|
100000000000200000000000100000200000100000100000,
|
|
100000000000200000000000100000200000100000100000,
|
|
200000000000200000000000100000100200100000100000,
|
|
100000000000200000000000100000200000100000100000,
|
|
100000000000200000000000100000200000100000100000,
|
|
100000000000200000000000200000200200100000200000,
|
|
700000000000000000000000000000000000
|
|
#BPMCHANGE 182
|
|
#SCROLL 1.01648351648
|
|
800000000000,
|
|
|
|
#GOGOEND
|
|
#BPMCHANGE 185
|
|
#SCROLL 1
|
|
200000000000200000000000200000200000200000200000,
|
|
|
|
|
|
#END
|
|
|
|
|
|
COURSE:Hard
|
|
LEVEL:5
|
|
BALLOON:8,8,8,8,8,8,8
|
|
SCOREINIT:3420
|
|
SCOREDIFF:0
|
|
|
|
|
|
#START
|
|
|
|
|
|
100000000000100000000000100000000000200000000000,
|
|
100000000000100000000000200000000000100000000000,
|
|
100000000000100000000000200000000000200000000000,
|
|
500000000000000000000008000000000000400000000000,
|
|
100000000000100000000000100000100000100000000000,
|
|
100000000000100000000000200000200000200000000000,
|
|
100000000000100000000000100000100000100000000000,
|
|
300000000000300000000000300000000000200000000000,
|
|
|
|
#GOGOSTART
|
|
100000000000200000000000100000100000100000000000,
|
|
100000000000200000000000100000100000100000000000,
|
|
100000000000200000000000100000100000100000000000,
|
|
200000000000200000000000200000200000200000000000,
|
|
100000000000200000000000100000100000100000000000,
|
|
100000000000200000000000100000100000100000000000,
|
|
100000000000200000000000200000200000200000000000,
|
|
700000000000000000000000000000000000800000000000,
|
|
|
|
#GOGOEND
|
|
100000000000000000000000200000000000000000000000,
|
|
100000000000100000100000100000000000200000000000,
|
|
100000000000200000000000200000000000100000100000,
|
|
100000000000100000000000100000000000000000000000,
|
|
100000000000000000000000200000000000000000000000,
|
|
100000000000100000100000100000000000200000000000,
|
|
100000000000100000100000100000000000200000000000,
|
|
300000000000300000000000300000000000000000000000,
|
|
100000000000000000000000200000000000000000000000,
|
|
100000000000100000100000100000000000200000000000,
|
|
100000000000200000000000100000000000100000000000,
|
|
100000100000100000000000200000000000000000000000,
|
|
100000000000000000000000200000000000000000000000,
|
|
100000000000100000100000100000000000200000000000,
|
|
100000100000100000000000100000100000100000000000,
|
|
300000000000400000000000300000000000000000000000,
|
|
100000000000000000100000100000000000200000000000,
|
|
100000000000000000100000100000000000100000000000,
|
|
500000000000000000000000000000000008000000000000,
|
|
700000000000000000000000000000000000800000000000,
|
|
100000000000000000100000100000000000200000000000,
|
|
100000000000000000200000200000000000200000000000,
|
|
500000000000000000000000000000000008000000000000,
|
|
700000000000000000000000000000000000800000000000,
|
|
100000000000000000100000100000000000200000000000,
|
|
100000000000000000100000100000000000100000000000,
|
|
500000000000000000000000000000000008000000000000,
|
|
700000000000000000000000000000000000800000000000,
|
|
100000000000100000000000100000000000100000000000,
|
|
100000000000100000000000100000100000100000000000,
|
|
100000100000100000000000100000100000100000100000,
|
|
100000000000000000000000000000000000000000000000,
|
|
|
|
#GOGOSTART
|
|
100000000000100000000000100000100000100000000000,
|
|
200000000000200000000000200000200000200000000000,
|
|
100000000000100000000000200000000000100000000000,
|
|
500000000000000000000008000000000000400000000000,
|
|
100000000000100000000000100000100000100000000000,
|
|
200000000000200000000000200000200000200000000000,
|
|
100000000000200000000000200000000000100000000000,
|
|
500000000000000000000008000000000000000000000000,
|
|
100000000000100000000000100000100000100000000000,
|
|
200000000000200000000000200000200000200000000000,
|
|
100000000000100000000000200000000000100000000000,
|
|
500000000000000000000008000000000000400000000000,
|
|
100000000000200000000000100000000000200000000000,
|
|
100000000000200000000000200000000000100000100000,
|
|
100000000000200000000000100000000000200000000000,
|
|
300000000000300000000000300000000000000000000000,
|
|
|
|
#GOGOEND
|
|
100000000000100000000000100000100000000000700000,
|
|
000000000000000000000000000000800000000000000000,
|
|
200000000000000000000000200000000000000000000000,
|
|
100000100000100000000000200000000000200000000000,
|
|
100000000000100000000000100000100000000000700000,
|
|
000000000000000000000000000000800000000000000000,
|
|
100000000000000000000000100000000000000000000000,
|
|
100000000000100000000000100000100000100000000000,
|
|
|
|
#GOGOSTART
|
|
100000000000200000000000100000100000100000000000,
|
|
100000000000200000000000100000100000100000000000,
|
|
100000000000200000000000100000100000100000000000,
|
|
200000000000200000000000200000200000200000000000,
|
|
100000000000200000000000100000100000100000000000,
|
|
100000000000200000000000100000100000100000000000,
|
|
100000000000200000000000200000200000200000000000,
|
|
700000000000000000000000000000000000
|
|
#BPMCHANGE 182
|
|
#SCROLL 1.01648351648
|
|
800000000000,
|
|
|
|
#GOGOEND
|
|
#BPMCHANGE 185
|
|
#SCROLL 1
|
|
200000000000000000000000200000000000200000000000,
|
|
|
|
|
|
#END
|
|
|
|
|
|
COURSE:Normal
|
|
LEVEL:3
|
|
BALLOON:6,6,6,6,6,6,6
|
|
SCOREINIT:4910
|
|
SCOREDIFF:0
|
|
|
|
|
|
#START
|
|
|
|
|
|
100000000000000000000000100000000000000000000000,
|
|
100000000000000000000000200000000000000000000000,
|
|
100000000000100000000000100000000000000000000000,
|
|
500000000000000000000008000000000000400000000000,
|
|
100000000000000000000000100000000000000000000000,
|
|
100000000000000000000000200000000000000000000000,
|
|
100000000000100000000000100000000000000000000000,
|
|
300000000000300000000000300000000000000000000000,
|
|
|
|
#GOGOSTART
|
|
100000000000000000000000100000000000100000000000,
|
|
100000000000000000000000100000000000100000000000,
|
|
100000000000000000000000100000000000100000000000,
|
|
200000000000000000000000200000000000200000000000,
|
|
100000000000000000000000100000000000100000000000,
|
|
100000000000000000000000100000000000100000000000,
|
|
100000000000000000000000200000000000200000000000,
|
|
700000000000000000000000000000000000800000000000,
|
|
|
|
#GOGOEND
|
|
100000000000000000000000200000000000000000000000,
|
|
100000000000100000000000100000000000000000000000,
|
|
100000000000200000000000200000000000000000000000,
|
|
100000000000100000000000100000000000000000000000,
|
|
100000000000000000000000200000000000000000000000,
|
|
100000000000100000000000100000000000000000000000,
|
|
100000000000200000000000100000000000000000000000,
|
|
300000000000300000000000300000000000000000000000,
|
|
100000000000000000000000200000000000000000000000,
|
|
100000000000100000000000100000000000000000000000,
|
|
100000000000200000000000100000000000100000000000,
|
|
100000000000100000000000200000000000000000000000,
|
|
100000000000000000000000200000000000000000000000,
|
|
100000000000100000000000100000000000000000000000,
|
|
100000000000100000000000100000000000200000000000,
|
|
300000000000300000000000300000000000000000000000,
|
|
200000000000000000200000200000000000000000000000,
|
|
200000000000000000200000200000000000000000000000,
|
|
500000000000000000000000000000000008000000000000,
|
|
700000000000000000000000000000000000800000000000,
|
|
200000000000000000200000200000000000000000000000,
|
|
200000000000000000200000200000000000000000000000,
|
|
500000000000000000000000000000000008000000000000,
|
|
700000000000000000000000000000000000800000000000,
|
|
200000000000000000200000200000000000000000000000,
|
|
200000000000000000200000200000000000000000000000,
|
|
500000000000000000000000000000000008000000000000,
|
|
700000000000000000000000000000000000800000000000,
|
|
100000000000100000000000100000000000000000000000,
|
|
100000000000100000000000100000000000000000000000,
|
|
100000000000100000000000100000100000100000000000,
|
|
100000000000000000000000000000000000000000000000,
|
|
|
|
#GOGOSTART
|
|
100000000000000000000000100000000000100000000000,
|
|
200000000000000000000000200000000000200000000000,
|
|
100000000000100000000000200000000000100000000000,
|
|
500000000000000000000008000000000000400000000000,
|
|
100000000000000000000000100000000000100000000000,
|
|
200000000000000000000000200000000000200000000000,
|
|
100000000000200000000000200000000000100000000000,
|
|
500000000000000000000008000000000000000000000000,
|
|
100000000000000000000000100000000000200000000000,
|
|
100000000000000000000000200000000000200000000000,
|
|
100000000000100000000000200000000000100000000000,
|
|
500000000000000000000008000000000000400000000000,
|
|
100000000000200000000000100000000000100000000000,
|
|
100000000000200000000000100000000000100000000000,
|
|
100000000000200000000000100000000000200000000000,
|
|
300000000000300000000000300000000000000000000000,
|
|
|
|
#GOGOEND
|
|
100000000000000000000000100000000000000000700000,
|
|
000000000000000000000000000000800000000000000000,
|
|
200000000000000000000000200000000000000000000000,
|
|
100000000000100000000000200000000000200000000000,
|
|
100000000000000000000000100000000000000000700000,
|
|
000000000000000000000000000000800000000000000000,
|
|
200000000000000000000000200000000000000000000000,
|
|
100000000000100000000000200000000000200000000000,
|
|
|
|
#GOGOSTART
|
|
100000000000000000000000100000000000100000000000,
|
|
100000000000000000000000100000000000100000000000,
|
|
100000000000000000000000100000000000100000000000,
|
|
200000000000000000000000200000000000200000000000,
|
|
100000000000000000000000100000000000100000000000,
|
|
100000000000000000000000100000000000100000000000,
|
|
100000000000000000000000200000000000200000000000,
|
|
700000000000000000000000000000000000
|
|
#BPMCHANGE 182
|
|
#SCROLL 1.01648351648
|
|
800000000000,
|
|
|
|
#GOGOEND
|
|
#BPMCHANGE 185
|
|
#SCROLL 1
|
|
200000000000000000000000200000000000200000000000,
|
|
|
|
|
|
#END
|
|
|
|
|
|
COURSE:Easy
|
|
LEVEL:3
|
|
BALLOON:4,5,5,4
|
|
SCOREINIT:7600
|
|
SCOREDIFF:0
|
|
|
|
|
|
#START
|
|
|
|
|
|
100000000000000000000000000000000000000000000000,
|
|
100000000000000000000000000000000000000000000000,
|
|
100000000000000000000000100000000000000000000000,
|
|
100000000000000000000000000000000000000000000000,
|
|
100000000000000000000000000000000000000000000000,
|
|
100000000000000000000000000000000000000000000000,
|
|
100000000000000000000000100000000000000000000000,
|
|
300000000000300000000000300000000000000000000000,
|
|
|
|
#GOGOSTART
|
|
100000000000000000000000100000000000000000000000,
|
|
100000000000000000000000100000000000000000000000,
|
|
100000000000000000000000100000000000000000000000,
|
|
200000000000000000000000200000000000000000000000,
|
|
100000000000000000000000100000000000000000000000,
|
|
100000000000000000000000100000000000000000000000,
|
|
100000000000000000000000200000000000000000000000,
|
|
700000000000000000000000000000000000800000000000,
|
|
|
|
#GOGOEND
|
|
100000000000000000000000000000000000000000000000,
|
|
100000000000000000000000000000000000000000000000,
|
|
100000000000000000000000100000000000000000000000,
|
|
100000000000000000000000000000000000000000000000,
|
|
100000000000000000000000000000000000000000000000,
|
|
100000000000000000000000000000000000000000000000,
|
|
100000000000000000000000100000000000000000000000,
|
|
300000000000300000000000300000000000000000000000,
|
|
100000000000000000000000000000000000000000000000,
|
|
200000000000000000000000000000000000000000000000,
|
|
100000000000000000000000100000000000000000000000,
|
|
100000000000000000000000000000000000000000000000,
|
|
100000000000000000000000000000000000000000000000,
|
|
200000000000000000000000000000000000000000000000,
|
|
100000000000000000000000100000000000000000000000,
|
|
300000000000300000000000300000000000000000000000,
|
|
200000000000000000000000000000000000000000000000,
|
|
200000000000000000000000000000000000000000000000,
|
|
500000000000000000000000000000000008000000000000,
|
|
000000000000000000000000000000000000000000000000,
|
|
200000000000000000000000000000000000000000000000,
|
|
200000000000000000000000000000000000000000000000,
|
|
500000000000000000000000000000000008000000000000,
|
|
000000000000000000000000000000000000000000000000,
|
|
200000000000000000000000000000000000000000000000,
|
|
200000000000000000000000000000000000000000000000,
|
|
500000000000000000000000000000000008000000000000,
|
|
000000000000000000000000000000000000000000000000,
|
|
100000000000000000000000100000000000000000000000,
|
|
100000000000100000000000100000000000000000000000,
|
|
100000000000100000000000100000000000100000000000,
|
|
100000000000000000000000000000000000000000000000,
|
|
|
|
#GOGOSTART
|
|
100000000000000000000000100000000000000000000000,
|
|
200000000000000000000000200000000000000000000000,
|
|
100000000000100000000000100000000000000000000000,
|
|
500000000000000000000008000000000000000000000000,
|
|
100000000000000000000000100000000000000000000000,
|
|
200000000000000000000000200000000000000000000000,
|
|
100000000000100000000000100000000000000000000000,
|
|
500000000000000000000008000000000000000000000000,
|
|
200000000000000000000000200000000000000000000000,
|
|
100000000000000000000000200000000000000000000000,
|
|
100000000000100000000000100000000000000000000000,
|
|
500000000000000000000008000000000000000000000000,
|
|
100000000000100000000000100000000000000000000000,
|
|
100000000000100000000000100000000000000000000000,
|
|
100000000000100000000000100000000000100000000000,
|
|
300000000000300000000000300000000000000000000000,
|
|
|
|
#GOGOEND
|
|
100000000000000000000000100000000000000000700000,
|
|
000000000000000000000000000000800000000000000000,
|
|
200000000000000000000000200000000000000000000000,
|
|
200000000000200000000000200000000000000000000000,
|
|
100000000000000000000000100000000000000000700000,
|
|
000000000000000000000000000000800000000000000000,
|
|
200000000000000000000000200000000000000000000000,
|
|
200000000000200000000000200000000000000000000000,
|
|
|
|
#GOGOSTART
|
|
100000000000000000000000100000000000000000000000,
|
|
100000000000000000000000100000000000000000000000,
|
|
100000000000000000000000100000000000000000000000,
|
|
200000000000000000000000200000000000000000000000,
|
|
100000000000000000000000100000000000000000000000,
|
|
100000000000000000000000100000000000000000000000,
|
|
100000000000000000000000200000000000000000000000,
|
|
700000000000000000000000000000000000
|
|
#BPMCHANGE 182
|
|
#SCROLL 1.01648351648
|
|
800000000000,
|
|
|
|
#GOGOEND
|
|
#BPMCHANGE 185
|
|
#SCROLL 1
|
|
200000000000000000000000200000000000200000000000,
|
|
|
|
|
|
#END
|
|
|