430 lines
15 KiB
Plaintext
430 lines
15 KiB
Plaintext
//TJADB Project
|
|
TITLE:Summer Dude
|
|
TITLEJA:Summer Dude
|
|
SUBTITLE:--i☆Ris
|
|
SUBTITLEJA:i☆Ris
|
|
BPM:115
|
|
WAVE:Summer Dude.ogg
|
|
OFFSET:-2.119
|
|
DEMOSTART:76.346
|
|
|
|
COURSE:Oni
|
|
LEVEL:8
|
|
BALLOON:16
|
|
SCOREINIT:510
|
|
SCOREDIFF:130
|
|
|
|
|
|
#START
|
|
|
|
|
|
#SCROLL 1.15652173913
|
|
200000000000000000200000
|
|
#BPMCHANGE 117
|
|
#SCROLL 1.13675213675
|
|
000000000000
|
|
#BPMCHANGE 138
|
|
#SCROLL 0.96376811594
|
|
200000000000,
|
|
#BPMCHANGE 118.5
|
|
#SCROLL 1.1223628692
|
|
200000000000000000200000
|
|
#BPMCHANGE 125
|
|
#SCROLL 1.064
|
|
000000000000
|
|
#BPMCHANGE 130
|
|
#SCROLL 1.02307692308
|
|
200000000000,
|
|
#BPMCHANGE 134
|
|
#SCROLL 0.99253731343
|
|
200000000000000000200000
|
|
#BPMCHANGE 133
|
|
#SCROLL 1
|
|
000000000000000000000000,
|
|
100000000100000000100000100200100000100000200000,
|
|
100000200200100000200200100200100000200000100000,
|
|
000000100000200000100000000000100000200200200000,
|
|
100000100100200000100100200200100000200000100000,
|
|
000000100000200000100000000000100000200200200000,
|
|
100000200200100000200200100200100000200000100000,
|
|
000000100000200000100000000000100000200200200000,
|
|
200000100100200000100100200000200000100000400000,
|
|
000000400000000000400000000000200000200200100000,
|
|
100000100000200000200000100100100000200000100000,
|
|
100000200100000000100000000000100100200000200000,
|
|
100000200000100000200200100000200000100000200000,
|
|
000000200000100000200000000000100100200000200000,
|
|
100000100000200000200000100100100000200000100000,
|
|
000000100000100000200000000000200200200000200000,
|
|
100000200000100000200000200200100000100000200000,
|
|
000000200000100000200000000000100100200000200000,
|
|
100000100000200000200000100100100000200000100000,
|
|
000000200000100100100000200000000000400000000000,
|
|
100000100000200000200000100100100000200200100000,
|
|
100000200100000000100000200000100100200000200000,
|
|
100000200000100000200200100200100000100000200000,
|
|
000000200000100000200200100000100100200000200000,
|
|
100000100000200000200000100100100000200200100000,
|
|
000000100200100000100200100200100000100000200000,
|
|
100000200000100000200200100200100000100000200000,
|
|
000000200000100000200000100000100100200000200000,
|
|
100000100000200000200000100100100000200000100000,
|
|
000000200000100100100000200000100000200200200000,
|
|
300000000000300000000000100000100100100000200000,
|
|
000000100000200000100000200200100000200000100000,
|
|
300000000000300000000000100000200200100000200000,
|
|
000000100000200000100000100100200000200000000000,
|
|
100000000000200000100100200000100000200000200000,
|
|
100000000000200000100000200100100000200000100000,
|
|
100000200200200000100000200000100000200200100000,
|
|
700000000000000000000000000000000000800000000000,
|
|
400000000400000000400000200200100000100000200000,
|
|
|
|
#GOGOSTART
|
|
300000000300000000300000200000100100100000200000,
|
|
100000200100000100200000100000200200100000200000,
|
|
100000100200000200100000200000100100200000200000,
|
|
100000200100000100200000100000200200100000200000,
|
|
100000100100200000100000100100000200000200200200,
|
|
100000100100200000100000100100000200000200200200,
|
|
100000100100000200200000100000200200100000200000,
|
|
300000000000300000000000400000000000400000000000,
|
|
300000000300000000300000200000100100100000200000,
|
|
100000200100000100200000100000200200100000200000,
|
|
100000100200000200100000200000100100200000200000,
|
|
100000200100000100200000100000200200100000200000,
|
|
100000100100200000100000100100000200000200200200,
|
|
100000100100200000100000100100000200000200200200,
|
|
100000100100000200200000100000200200100000200000,
|
|
300000000000300000000000300000100000200200200000,
|
|
|
|
#GOGOEND
|
|
100000100000200100100000200100000200000000200200,
|
|
100000100000200100100000200100000200000000200200,
|
|
100000100100200000100100200100100000200000100000,
|
|
200000100100200000100100200000100100200000200200,
|
|
100000100000200100100000200100000200000000200200,
|
|
100000100000200100100000200100000200000000200200,
|
|
200000100100200000100100200200200000100000400000,
|
|
000000400000000000400000000000200000200200100000,
|
|
300000000000000000000000000000000000000000000000,
|
|
|
|
|
|
#END
|
|
|
|
|
|
COURSE:Hard
|
|
LEVEL:6
|
|
BALLOON:14
|
|
SCOREINIT:610
|
|
SCOREDIFF:140
|
|
|
|
|
|
#START
|
|
|
|
|
|
#SCROLL 1.15652173913
|
|
200000000000000000200000
|
|
#BPMCHANGE 117
|
|
#SCROLL 1.13675213675
|
|
000000000000
|
|
#BPMCHANGE 138
|
|
#SCROLL 0.96376811594
|
|
200000000000,
|
|
#BPMCHANGE 118.5
|
|
#SCROLL 1.1223628692
|
|
200000000000000000200000
|
|
#BPMCHANGE 125
|
|
#SCROLL 1.064
|
|
000000000000
|
|
#BPMCHANGE 130
|
|
#SCROLL 1.02307692308
|
|
200000000000,
|
|
#BPMCHANGE 134
|
|
#SCROLL 0.99253731343
|
|
200000000000000000200000
|
|
#BPMCHANGE 133
|
|
#SCROLL 1
|
|
000000000000000000000000,
|
|
100000000100000000100000100100100000100000000000,
|
|
100000000000100000000000100000100000200000100000,
|
|
000000100000000000100000000000200000100100100000,
|
|
100000000000100000000000100000200000100000200000,
|
|
000000200000000000200000000000200000200200200000,
|
|
100000000000100000000000100000100000200000100000,
|
|
000000100000000000100000000000200000100100100000,
|
|
100000000000100000000000100000200000100000400000,
|
|
000000400000000000400000000000200000200200200000,
|
|
100000000000100000100000200000100000100000000000,
|
|
100000000100000000100000000000200000200000200000,
|
|
100000000000100000100000100000200000100000200000,
|
|
000000200000200000200000000000100000100000200000,
|
|
100000100000200000100000100000000000100000100000,
|
|
000000100000100000100000000000100000200000200000,
|
|
100000000000100000100000100000200000100000200000,
|
|
000000200000200000200000000000100000100000200000,
|
|
100000100000200000100000100000000000100000500000,
|
|
000000000000000000000000000008000000400000000000,
|
|
100000000000100000100000200000100000100000100000,
|
|
100000000100000000100000000000200000200000200000,
|
|
100000100000200000100000100000000000100000200000,
|
|
000000200000000000200000000000100000100000200000,
|
|
100000100000200000100000100000000000100000100000,
|
|
000000100000100000100000000000100000200000200000,
|
|
100000000000100000100000100000200000100000200000,
|
|
000000200000200000200000000000100000100000200000,
|
|
100000100000200000100000100000000000100000500000,
|
|
000000000000000000000000000008000000200000000000,
|
|
300000000000300000000000100000100000100000200000,
|
|
000000100000100000000000200000000000100000000000,
|
|
300000000000300000000000100000100000100000200000,
|
|
000000100000100000000000100000100000200000000000,
|
|
100000000000100000100000100000000000200000200000,
|
|
100000000000200000100000100100100000200000100000,
|
|
100000100100100000100000200000100000200000100000,
|
|
700000000000000000000000000000000000000000000000,
|
|
800000000000000000000000000000000000000000000000,
|
|
|
|
#GOGOSTART
|
|
300000000300000000300000000000100000100000200000,
|
|
100000100100000100100000200000000000100000200000,
|
|
100000000100000000200000000000100000100000200000,
|
|
100000000100000000200000000000200000100000200000,
|
|
100000100000200000100000200200000200000000000000,
|
|
100000100000200000100000200200000200000000000000,
|
|
100000000100100000100000200000100000200000100000,
|
|
300000000000300000000000300000000000400000000000,
|
|
300000000300000000300000000000100000100000200000,
|
|
100000100100000100100000200000000000100000200000,
|
|
100000000100000000200000000000200000100000200000,
|
|
100000000100000000200000000000200000100000200000,
|
|
100000100000200000100000200200000200000000000000,
|
|
100000100000200000100000200200000200000000000000,
|
|
100000000100100000100000200000100000200000100000,
|
|
300000000000300000000000300000200000200000200000,
|
|
|
|
#GOGOEND
|
|
100000100000200000100000100100000100000000000000,
|
|
100000100000200000100000100100000100000000000000,
|
|
100000000000100000000000100000200000100000200000,
|
|
200000000000200000000000200000000000200000000000,
|
|
100000100000200000100000100100000100000000000000,
|
|
100000100000200000100000100100000100000000000000,
|
|
100000000000100000000000100000200000100000400000,
|
|
000000400000000000400000000000200000200200200000,
|
|
300000000000000000000000000000000000000000000000,
|
|
|
|
|
|
#END
|
|
|
|
|
|
COURSE:Normal
|
|
LEVEL:5
|
|
BALLOON:7,10
|
|
SCOREINIT:750
|
|
SCOREDIFF:170
|
|
|
|
|
|
#START
|
|
|
|
|
|
#SCROLL 1.15652173913
|
|
200000000000000000200000
|
|
#BPMCHANGE 117
|
|
#SCROLL 1.13675213675
|
|
000000000000
|
|
#BPMCHANGE 138
|
|
#SCROLL 0.96376811594
|
|
000000000000,
|
|
#BPMCHANGE 118.5
|
|
#SCROLL 1.1223628692
|
|
200000000000000000200000
|
|
#BPMCHANGE 125
|
|
#SCROLL 1.064
|
|
000000000000
|
|
#BPMCHANGE 130
|
|
#SCROLL 1.02307692308
|
|
000000000000,
|
|
#BPMCHANGE 134
|
|
#SCROLL 0.99253731343
|
|
200000000000000000200000
|
|
#BPMCHANGE 133
|
|
#SCROLL 1
|
|
000000000000000000000000,
|
|
700000000000000000000000800000000000000000000000,
|
|
100000000000100000000000100000100000000000100000,
|
|
000000100000000000100000000000100000100000000000,
|
|
100000000000100000000000100000100000000000200000,
|
|
000000200000000000200000000000000000000000000000,
|
|
100000000000100000000000100000100000000000100000,
|
|
000000100000000000100000000000100000100000000000,
|
|
100000000000100000000000100000100000000000400000,
|
|
000000400000000000400000000000200000200000000000,
|
|
100000000000100000000000100000100000100000000000,
|
|
100000000100000000100000000000000000000000000000,
|
|
100000000000100000000000100000000000200000200000,
|
|
000000200000200000200000000000000000000000000000,
|
|
100000000000100000000000100000000000100000100000,
|
|
000000100000100000100000000000000000000000000000,
|
|
100000000000100000000000100000000000200000200000,
|
|
000000200000200000200000000000000000000000000000,
|
|
100000000000100000000000100000000000100000500000,
|
|
000000000000000000000000000008000000400000000000,
|
|
100000000000100000000000100000100000100000000000,
|
|
100000000100000000100000000000000000000000000000,
|
|
100000000000100000000000100000000000200000200000,
|
|
000000200000000000200000000000000000000000000000,
|
|
100000000000100000000000100000000000100000100000,
|
|
000000100000100000100000000000000000000000000000,
|
|
100000000000100000000000100000000000200000200000,
|
|
000000200000200000200000000000000000000000000000,
|
|
100000000000100000000000100000000000000000500000,
|
|
000000000000000000000000000008000000200000000000,
|
|
300000000000300000000000000000000000000000100000,
|
|
000000100000100000000000200000000000200000000000,
|
|
300000000000300000000000000000000000000000100000,
|
|
000000100000100000000000200000200000200000000000,
|
|
100000000000100000000000100000000000100000100000,
|
|
100000000000100000000000100000000000100000100000,
|
|
100000000000100000100000100000100000100000000000,
|
|
700000000000000000000000000000000000000000000000,
|
|
800000000000000000000000000000000000000000000000,
|
|
|
|
#GOGOSTART
|
|
300000000300000000300000000000000000100000000000,
|
|
100000000000100000000000100000100000100000000000,
|
|
500000000000000000000000000008000000200000000000,
|
|
500000000000000000000000000008000000200000000000,
|
|
100000000000200000000000200000000000000000000000,
|
|
100000000000200000000000200000000000000000000000,
|
|
100000000000100000000000100000100000100000000000,
|
|
300000000000300000000000300000000000400000000000,
|
|
300000000300000000300000000000000000100000000000,
|
|
100000000000100000000000100000100000100000000000,
|
|
500000000000000000000000000008000000200000000000,
|
|
500000000000000000000000000008000000200000000000,
|
|
100000000000200000000000200000000000000000000000,
|
|
100000000000200000000000200000000000000000000000,
|
|
100000000000100000000000100000100000100000000000,
|
|
300000000000300000000000300000000000200000000000,
|
|
|
|
#GOGOEND
|
|
100000100000100000000000100000000000000000000000,
|
|
100000100000100000000000100000000000000000000000,
|
|
100000000000100000000000100000100000100000000000,
|
|
200000000000200000000000200000000000200000000000,
|
|
100000100000100000000000100000000000000000000000,
|
|
100000100000100000000000100000000000000000000000,
|
|
200000000000200000000000200000000000200000400000,
|
|
000000400000000000400000000000200000200000000000,
|
|
300000000000000000000000000000000000000000000000,
|
|
|
|
|
|
#END
|
|
|
|
|
|
COURSE:Easy
|
|
LEVEL:3
|
|
BALLOON:5,8
|
|
SCOREINIT:740
|
|
SCOREDIFF:210
|
|
|
|
|
|
#START
|
|
|
|
|
|
#SCROLL 1.15652173913
|
|
200000000000000000000000
|
|
#BPMCHANGE 117
|
|
#SCROLL 1.13675213675
|
|
000000000000
|
|
#BPMCHANGE 138
|
|
#SCROLL 0.96376811594
|
|
000000000000,
|
|
#BPMCHANGE 118.5
|
|
#SCROLL 1.1223628692
|
|
200000000000000000000000
|
|
#BPMCHANGE 125
|
|
#SCROLL 1.064
|
|
000000000000
|
|
#BPMCHANGE 130
|
|
#SCROLL 1.02307692308
|
|
000000000000,
|
|
#BPMCHANGE 134
|
|
#SCROLL 0.99253731343
|
|
200000000000000000000000
|
|
#BPMCHANGE 133
|
|
#SCROLL 1
|
|
000000000000000000000000,
|
|
700000000000000000000000800000000000000000000000,
|
|
100000000000100000000000100000000000000000100000,
|
|
000000000000000000100000000000000000000000000000,
|
|
100000000000100000000000100000000000000000100000,
|
|
000000000000000000100000000000000000000000000000,
|
|
100000000000100000000000100000000000000000100000,
|
|
000000000000000000100000000000000000000000000000,
|
|
100000000000100000000000100000000000000000500000,
|
|
000000000000000000000000000008000000000000000000,
|
|
100000000000100000000000100000000000000000000000,
|
|
100000000000000000000000000000000000000000000000,
|
|
100000000000100000000000100000000000000000200000,
|
|
000000000000000000200000000000000000000000000000,
|
|
100000000000100000000000100000000000000000100000,
|
|
000000000000000000100000000000000000000000000000,
|
|
100000000000100000000000100000000000000000200000,
|
|
000000000000000000200000000000000000000000000000,
|
|
100000000000100000000000100000000000000000500000,
|
|
000000000000000000000000000008000000000000000000,
|
|
100000000000100000000000100000000000000000000000,
|
|
100000000000000000000000000000000000000000000000,
|
|
100000000000100000000000100000000000000000200000,
|
|
000000000000000000200000000000000000000000000000,
|
|
100000000000100000000000100000000000000000100000,
|
|
000000000000000000100000000000000000000000000000,
|
|
100000000000100000000000100000000000000000200000,
|
|
000000000000000000200000000000000000000000000000,
|
|
100000000000100000000000100000000000000000500000,
|
|
000000000000000000000000000008000000000000000000,
|
|
300000000000300000000000000000000000000000100000,
|
|
000000000000100000000000100000000000000000000000,
|
|
300000000000300000000000000000000000000000200000,
|
|
000000000000200000000000200000000000000000000000,
|
|
100000000000000000000000100000000000000000000000,
|
|
100000000000000000000000100000000000000000000000,
|
|
100000000000100000000000100000000000000000000000,
|
|
700000000000000000000000000000000000000000000000,
|
|
800000000000000000000000000000000000000000000000,
|
|
|
|
#GOGOSTART
|
|
300000000000000000300000000000000000000000000000,
|
|
100000000000000000000000200000000000000000000000,
|
|
500000000000000000000000000008000000000000000000,
|
|
500000000000000000000000000008000000000000000000,
|
|
000000000000000000000000200000000000000000000000,
|
|
000000000000000000000000200000000000000000000000,
|
|
100000000000000000000000100000000000000000000000,
|
|
300000000000300000000000300000000000000000000000,
|
|
300000000000000000300000000000000000000000000000,
|
|
100000000000000000000000200000000000000000000000,
|
|
500000000000000000000000000008000000000000000000,
|
|
500000000000000000000000000008000000000000000000,
|
|
000000000000000000000000200000000000000000000000,
|
|
000000000000000000000000200000000000000000000000,
|
|
100000000000000000000000100000000000000000000000,
|
|
300000000000300000000000300000000000000000000000,
|
|
|
|
#GOGOEND
|
|
100000000000100000000000100000000000000000000000,
|
|
100000000000100000000000100000000000000000000000,
|
|
100000000000000000000000000000000000000000000000,
|
|
200000000000200000000000200000000000000000000000,
|
|
100000000000100000000000100000000000000000000000,
|
|
100000000000100000000000100000000000000000000000,
|
|
200000000000000000000000200000000000000000500000,
|
|
000000000000000000000000000008000000000000000000,
|
|
300000000000000000000000000000000000000000000000,
|
|
|
|
|
|
#END
|
|
|