367 lines
4.8 KiB
Plaintext
367 lines
4.8 KiB
Plaintext
//TJADB Project
|
|
TITLE:Swan
|
|
TITLEJA:Swan
|
|
SUBTITLE:--[Alexandros]
|
|
SUBTITLEJA:[Alexandros]
|
|
BPM:142.38
|
|
WAVE:Swan.ogg
|
|
OFFSET:-1.809
|
|
DEMOSTART:54.566
|
|
|
|
COURSE:Oni
|
|
LEVEL:8
|
|
BALLOON:36
|
|
SCOREINIT:730
|
|
SCOREDIFF:195
|
|
|
|
|
|
#START
|
|
|
|
|
|
#SCROLL 0.99
|
|
1000200202002000,
|
|
#BPMCHANGE 141.59
|
|
1000200202002000,
|
|
#BPMCHANGE 139.56
|
|
#SCROLL 1.01
|
|
1000200202002000,
|
|
#BPMCHANGE 140.57
|
|
#SCROLL 1
|
|
1000200202002000,
|
|
#BPMCHANGE 143.68
|
|
#SCROLL 0.98
|
|
1001200212102000,
|
|
#BPMCHANGE 138.36
|
|
#SCROLL 1.02
|
|
1001200212102000,
|
|
#BPMCHANGE 143.33
|
|
#SCROLL 0.98
|
|
1001200212102000,
|
|
#BPMCHANGE 139.5
|
|
#SCROLL 1.01
|
|
1001200212102010,
|
|
#BPMCHANGE 142.26
|
|
#SCROLL 0.99
|
|
1000101100102011,
|
|
#BPMCHANGE 140.68
|
|
#SCROLL 1
|
|
0010201100001012,
|
|
#BPMCHANGE 140.15
|
|
0010201200102012,
|
|
#BPMCHANGE 141.65
|
|
#SCROLL 0.99
|
|
0010202100002011,
|
|
#BPMCHANGE 140.92
|
|
#SCROLL 1
|
|
0010201100102011,
|
|
#BPMCHANGE 141.53
|
|
#SCROLL 0.99
|
|
0010201200102070,
|
|
#BPMCHANGE 140.45
|
|
#SCROLL 1
|
|
,
|
|
#BPMCHANGE 140.33
|
|
00008021,
|
|
#BPMCHANGE 141.77
|
|
#SCROLL 0.99
|
|
1000101100102011,
|
|
#BPMCHANGE 140.8
|
|
#SCROLL 1
|
|
0010201100001012,
|
|
#BPMCHANGE 140.68
|
|
0010201200102012,
|
|
#BPMCHANGE 141.04
|
|
0010211200002011,
|
|
#BPMCHANGE 141.29
|
|
#SCROLL 0.99
|
|
0010201100102011,
|
|
#BPMCHANGE 140.51
|
|
#SCROLL 1
|
|
0010211100102050,
|
|
#BPMCHANGE 141.17
|
|
000000000000000000000000000000000000000000000008,
|
|
#BPMCHANGE 141.29
|
|
#SCROLL 0.99
|
|
0000001000101011,
|
|
#BPMCHANGE 140.98
|
|
#SCROLL 1
|
|
1001201010012010,
|
|
#BPMCHANGE 141.29
|
|
#SCROLL 0.99
|
|
1000200020000011,
|
|
#BPMCHANGE 140.74
|
|
#SCROLL 1
|
|
1001201020012010,
|
|
#BPMCHANGE 141.23
|
|
#SCROLL 0.99
|
|
2000200020000022,
|
|
#BPMCHANGE 140.62
|
|
#SCROLL 1
|
|
1010201012102010,
|
|
#BPMCHANGE 141.59
|
|
#SCROLL 0.99
|
|
1120111011202220,
|
|
#BPMCHANGE 140.62
|
|
#SCROLL 1
|
|
1120500000000000,
|
|
#BPMCHANGE 139.94
|
|
000008000000000000000000100000000100100000100000,
|
|
|
|
#GOGOSTART
|
|
#BPMCHANGE 142.2
|
|
#SCROLL 0.99
|
|
1001201102102011,
|
|
#BPMCHANGE 140.95
|
|
#SCROLL 1
|
|
1001201102102011,
|
|
#BPMCHANGE 140.86
|
|
1001201102112011,
|
|
#BPMCHANGE 141.83
|
|
#SCROLL 0.99
|
|
2210201011011010,
|
|
#BPMCHANGE 139.44
|
|
#SCROLL 1.01
|
|
1001201102102011,
|
|
#BPMCHANGE 142.07
|
|
#SCROLL 0.99
|
|
1001201102102010,
|
|
#BPMCHANGE 140.86
|
|
#SCROLL 1
|
|
1001201101112022,
|
|
#BPMCHANGE 139.91
|
|
1001201201221010,
|
|
#BPMCHANGE 141.71
|
|
#SCROLL 0.99
|
|
1001201202112022,
|
|
#BPMCHANGE 141.35
|
|
1001201201221011,
|
|
1011201202112022,
|
|
#BPMCHANGE 139.44
|
|
#SCROLL 1.01
|
|
1122102112112011,
|
|
#BPMCHANGE 141.17
|
|
#SCROLL 1
|
|
2011201120112011,
|
|
#BPMCHANGE 140.8
|
|
2011201120112211,
|
|
2011201120112011,
|
|
#BPMCHANGE 141.83
|
|
#SCROLL 0.99
|
|
2011201122112211,
|
|
#BPMCHANGE 140.57
|
|
#SCROLL 1
|
|
2011201120112011,
|
|
#BPMCHANGE 141.59
|
|
#SCROLL 0.99
|
|
2011201120112210,
|
|
#BPMCHANGE 140.39
|
|
#SCROLL 1
|
|
100010001000200020002000100100100000100100200000,
|
|
#BPMCHANGE 142.32
|
|
#SCROLL 0.99
|
|
200200200000100010001000200020002000100010001000,
|
|
|
|
#GOGOEND
|
|
2,
|
|
|
|
|
|
#END
|
|
|
|
|
|
COURSE:Hard
|
|
LEVEL:6
|
|
BALLOON:27,22,38
|
|
SCOREINIT:820
|
|
SCOREDIFF:220
|
|
|
|
#START
|
|
2,
|
|
2,
|
|
2,
|
|
2,
|
|
1000200011102000,
|
|
1000200011102000,
|
|
1000200011102000,
|
|
1000200011102010,
|
|
10210012,
|
|
01210012,
|
|
00210012,
|
|
02120021,
|
|
00110021,
|
|
01210127,
|
|
,
|
|
00008011,
|
|
02110112,
|
|
01210012,
|
|
02120212,
|
|
01210011,
|
|
02110112,
|
|
01210125,
|
|
000000000000000000000000000000000000000000000008,
|
|
00100121,
|
|
10211021,
|
|
10202001,
|
|
10211021,
|
|
2000200020000011,
|
|
1010200011102000,
|
|
2220100020007000,
|
|
,
|
|
80001011,//32
|
|
|
|
#GOGOSTART
|
|
0010201110102010,
|
|
0010201000102011,
|
|
1010202000202011,
|
|
12001011,
|
|
0010201110102010,
|
|
0010201000102011,
|
|
1010201110102011,
|
|
1010201110102050,
|
|
0000000080007000,
|
|
,
|
|
,
|
|
8000000010111010,
|
|
1011101010111010,
|
|
1011101010111010,
|
|
1011101010111011,
|
|
1110001010111010,
|
|
1011201010112010,
|
|
1011201010112010,
|
|
6,
|
|
000000000000000000000000000000000000000008000000,//52
|
|
|
|
#GOGOEND
|
|
,
|
|
#END
|
|
|
|
COURSE:Normal
|
|
LEVEL:4
|
|
BALLOON:18,14,25
|
|
|
|
#START
|
|
#BARLINEOFF
|
|
,
|
|
,
|
|
,
|
|
,
|
|
#BARLINEON
|
|
1211,
|
|
1211,
|
|
1211,
|
|
1211,
|
|
10110011,
|
|
00110011,
|
|
00110011,
|
|
00110022,
|
|
00220022,
|
|
00220070,
|
|
,
|
|
00008011,
|
|
00110011,
|
|
00110011,
|
|
00110011,
|
|
00110022,
|
|
00220022,
|
|
00220050,
|
|
000000000000000000000000000000000000000000000008,
|
|
,
|
|
1011,
|
|
2220,
|
|
1011,
|
|
2220,
|
|
10101110,
|
|
2227,
|
|
,
|
|
80001011,//32
|
|
|
|
#GOGOSTART
|
|
00110022,
|
|
00110011,
|
|
10222011,
|
|
11001011,
|
|
00110022,
|
|
00110011,
|
|
10222011,
|
|
10222050,
|
|
000000000000000000000008000000000000700000000000,
|
|
,
|
|
,
|
|
80001011,
|
|
00110022,
|
|
00110011,
|
|
10222011,
|
|
11011011,
|
|
00111022,
|
|
20111020,
|
|
6,
|
|
000000000000000000000000000000000000000008000000,//52
|
|
|
|
#GOGOEND
|
|
,
|
|
#END
|
|
|
|
COURSE:Easy
|
|
LEVEL:3
|
|
BALLOON:13,10,18
|
|
|
|
#START
|
|
#BARLINEOFF
|
|
,
|
|
,
|
|
,
|
|
,
|
|
#BARLINEON
|
|
11,
|
|
1110,
|
|
11,
|
|
1110,
|
|
1101,
|
|
0101,
|
|
0101,
|
|
0102,
|
|
0202,
|
|
0207,
|
|
,
|
|
08,
|
|
1101,
|
|
0101,
|
|
0101,
|
|
0102,
|
|
0202,
|
|
0250,
|
|
000000000000000000000000000000000000000000000008,
|
|
,
|
|
1,
|
|
3330,
|
|
1,
|
|
3330,
|
|
11,
|
|
4447,
|
|
,
|
|
8,//32
|
|
|
|
#GOGOSTART
|
|
1110,
|
|
1120,
|
|
1110,
|
|
1120,
|
|
1110,
|
|
1120,
|
|
1111,
|
|
1500,
|
|
000000000000000000000008000000000000900000000000,
|
|
,
|
|
09,
|
|
8,
|
|
3333,
|
|
3340,
|
|
3333,
|
|
3340,
|
|
3333,
|
|
3334,
|
|
6,
|
|
000000000000000000000000000000000000000008000000,//52
|
|
|
|
#GOGOEND
|
|
,
|
|
#END |