362 lines
14 KiB
Plaintext
362 lines
14 KiB
Plaintext
//TJADB Project
|
|
TITLE:Tamashii Revolution
|
|
TITLEJA:タマシイレボリューション
|
|
SUBTITLE:--Superfly/NHK 2010 Soccer
|
|
BPM:132
|
|
WAVE:Tamashii Revolution.ogg
|
|
OFFSET:-1.961
|
|
DEMOSTART:19.925
|
|
|
|
COURSE:Oni
|
|
LEVEL:8
|
|
BALLOON:13,13,20
|
|
SCOREINIT:510
|
|
SCOREDIFF:128
|
|
NOTESDESIGNER3:Kijikiji
|
|
|
|
|
|
#START
|
|
|
|
|
|
100000200000100000200000100100100000200000100100,
|
|
100000200000100000200000100200100000200000000000,
|
|
100000200000100000200000100100100000200000100100,
|
|
100000200000100000200000100200100000200000000000,
|
|
100000200200100000200200100100100000200000100100,
|
|
100000200200100000200200100200100000200000200200,
|
|
100000200200100000200200100100100000200000100100,
|
|
100000200200100100200200100100100100100100100000,
|
|
300000000300000000000000300000000300000000000000,
|
|
200000100000100000100000100000100100100100100100,
|
|
|
|
#GOGOSTART
|
|
100000100000200000100100100000100000200000100100,
|
|
100000100000200000100100100000100000200000100100,
|
|
200000100000100000100100200000200000200000100000,
|
|
200000100100200000100100200000100100200000000000,
|
|
100000100000200000100100100000100000200000100100,
|
|
100000100000200000100100100000100000200000100100,
|
|
200000100000100000100100200000200000200000100000,
|
|
200000100100200000100100200000100100200000100000,
|
|
200000100100200000100100200000200100200000300000,
|
|
000000300000300000000000400000400000400000000000,
|
|
7,
|
|
|
|
#GOGOEND
|
|
8,
|
|
,
|
|
,
|
|
100000200000100000200100000100200000100000200000,
|
|
100000200000100000200100100100200000100000200000,
|
|
100000200000100000200100000100200000100100200000,
|
|
300000000000300000000000300000000000300000100100,
|
|
100000200000100000200100000100200000100000200000,
|
|
100000200000100000200100100100200000100000200000,
|
|
100000400000300000000000400000000300000000100100,
|
|
100000100000200000200200100100200000100100100100,
|
|
7,
|
|
8,
|
|
100000100000200000100100200200100000200000100000,
|
|
000000100000200000100200100200100000400000000000,
|
|
000000100000100000200000100100100000200000101010,
|
|
100000100000100000200000100100100000200000200200,
|
|
100000100000200000100100200200100000200000100000,
|
|
000000100000200000100200100200100000400000000000,
|
|
300000000300000000000000300000000300000000000000,
|
|
200000100000100000100000100100100100100100100100,
|
|
|
|
#GOGOSTART
|
|
100000100000200000100100100100100000200000100100,
|
|
100000100000200000100100100100100000200000100100,
|
|
200000100000100000100100200000200000200000100000,
|
|
200000100100200000100100200000100100200000200200,
|
|
100000100000200000100200100100100000200000100100,
|
|
100000100000200000100200100100100000200000100100,
|
|
200000100000100000100100200000200000200000100000,
|
|
200000100100200000100100200000100100200000200200,
|
|
100000100000200000100100200100100000200000100100,
|
|
100000100000200000100100200100100000200000100100,
|
|
200000100000100000100100200000200000200000100000,
|
|
200000100100200000100100200000100100200000200200,
|
|
100000100000200000100100100200100000200000100100,
|
|
100000100000200000100100100200100000200000100100,
|
|
200000100000100000100100200000200000200000100000,
|
|
200000100100200000100100200000100100200000100000,
|
|
200000100100200000100100200000200100200000300000,
|
|
000000300000300000000000400000400000400000000000,
|
|
7,
|
|
08,
|
|
|
|
#GOGOEND
|
|
100000200200100000200200100100100000200000100100,
|
|
100000200200100000200200100200100000200000200200,
|
|
100000200200100000200200100100100000200000100100,
|
|
100000200200100000200200100200100000200000200200,
|
|
100000200200100000200200100100100000400000000000,
|
|
500000000000000000000000000008000000300000000000,
|
|
|
|
|
|
#END
|
|
|
|
|
|
COURSE:Hard
|
|
LEVEL:6
|
|
BALLOON:11,11,16
|
|
SCOREINIT:540
|
|
SCOREDIFF:143
|
|
|
|
|
|
#START
|
|
|
|
|
|
100000100000100000100000100100100000100000000000,
|
|
100000100000100000100000100100100000200000000000,
|
|
100000100000100000100000100100100000100000000000,
|
|
100000100000100000100000100100100000200000000000,
|
|
100000200000100000200000100100100000100000000000,
|
|
100000200000100000200000100100100000200000000000,
|
|
100000200000100000200000100100100000100000000000,
|
|
100000200000100000200000500000000000000800000000,
|
|
300000000300000000000000300000000300000000000000,
|
|
300000000000000000000000000000000000000000000000,
|
|
#GOGOSTART
|
|
100000100000200000100000000000100000200000100000,
|
|
000000100000200000100000000000000000100100100000,
|
|
200000000000100100100000200000000000000000100000,
|
|
200000100000200000100000200000200200200000000000,
|
|
100000100000200000100000000000100000200000100000,
|
|
000000100000200000100000000000000000100100100000,
|
|
200000000000100100100000200000000000000000100000,
|
|
200000100000200000100000200000200200200000100000,
|
|
000000100000200000100000200000200200200000300000,
|
|
000000300000300000000000400000400000400000000000,
|
|
700000000000000000000000000000000000000000000800,
|
|
#GOGOEND
|
|
000000000000000000000000000000000000000000000000,
|
|
000000000000000000000000000000000000000000000000,
|
|
000000000000400000000000000000000000000000000000,
|
|
100000100000200000200000100100100000100000000000,
|
|
100000100000200000200000100100100000200000000000,
|
|
100000100000200000200000100100100000100000000000,
|
|
300000000000300000000000300000000000300000000000,
|
|
100000100000200000200000100100100000100000000000,
|
|
100000100000200000200000100100100000200000000000,
|
|
000000400000300000000000400000000300000000100000,
|
|
100000100000200000200000100000200000100000000000,
|
|
9,
|
|
8,
|
|
100000100000200000100000000000100000200000100000,
|
|
000000100000200000100000000000000000400000000000,
|
|
000000100000100000100000100100100000200000000000,
|
|
000000100000100000100000100100100000200000000000,
|
|
100000100000200000100000000000100000200000100000,
|
|
000000100000200000100000000000000000400000000000,
|
|
300000000300000000000000300000000300000000000000,
|
|
100000100000100000100000300000000000300000000000,
|
|
#GOGOSTART
|
|
100000100000200000100000000000100000200000100000,
|
|
000000100000200000100000000000000000100100100000,
|
|
200000000000100100100000200000000000000000100000,
|
|
200000100000200000100000200000200200200000000000,
|
|
100000100000200000100000000000100000200000100000,
|
|
000000100000200000100000000000000000100100100000,
|
|
200000000000100100100000200000000000000000100100,
|
|
100000100000200000100000200200200000200000000000,
|
|
100000100000200000100000000000100000200000100000,
|
|
000000100000200000100000000000000000100100100000,
|
|
200000000000100100100000200000000000000000100100,
|
|
100000100000200000100000200200200000200000000000,
|
|
100100100000200000100000000000100000200000100000,
|
|
000000100000200000100100100000000000100100100000,
|
|
200000000000100100100000200000000000000000100100,
|
|
100000100000200000100000200200200000200000100100,
|
|
100000100000200000100000200200200000200000300000,
|
|
000000300000300000000000400000400000400000000000,
|
|
700000000000000000000000000000000000000000000000,
|
|
000000000000000000000800000000000000000000000000,
|
|
#GOGOEND
|
|
100000200000100000200000100100100000100000000000,
|
|
100000200000100000200000100100100000200000000000,
|
|
100000200000100000200000100100100000100000000000,
|
|
100000200000100000200000100100100000200000000000,
|
|
100000200000100000200000100100100000400000000000,
|
|
500000000000000000000000000800000000300000000000,
|
|
|
|
|
|
#END
|
|
|
|
|
|
COURSE:Normal
|
|
LEVEL:4
|
|
BALLOON:10,10,15
|
|
SCOREINIT:650
|
|
SCOREDIFF:190
|
|
|
|
|
|
#START
|
|
|
|
|
|
100000100000100000000000100000000000000000000000,
|
|
100000100000100000000000200000000000000000000000,
|
|
100000100000100000000000100000000000000000000000,
|
|
100000100000100000000000200000000000000000000000,
|
|
100000100000100000000000100000000000100000000000,
|
|
100000100000100000000000200000000000200000000000,
|
|
100000100000100000000000100000000000100000000000,
|
|
100000100000100000000000200000000000200000000000,
|
|
300000000300000000000000300000000300000000000000,
|
|
300000000000000000000000000000000000000000000000,
|
|
#GOGOSTART
|
|
100000000000100000000000100000100000100000000000,
|
|
100000000000100000000000200000200000200000000000,
|
|
300000000000000000000000400000000000000000500000,
|
|
000000000000800000000000300000000000000000000000,
|
|
100000000000100000000000100000100000100000000000,
|
|
100000000000100000000000200000200000200000000000,
|
|
300000000000000000000000400000000000000000500000,
|
|
000000000000800000000000300000000000000000500000,
|
|
000000000000800000000000400000000000000000300000,
|
|
000000300000300000000000400000000000400000000000,
|
|
700000000000000000000000000000000000000000800000,
|
|
#GOGOEND
|
|
000000000000000000000000000000000000000000000000,
|
|
000000000000000000000000000000000000000000000000,
|
|
000000000000000000000000000000000000000000000000,
|
|
100000000000200000000000100000100000100000000000,
|
|
100000000000200000000000100000100000100000000000,
|
|
100000000000000000000000200000000000000000000000,
|
|
300000000000300000000000300000000000300000000000,
|
|
100000000000200000000000100000100000100000000000,
|
|
100000000000200000000000100000100000100000000000,
|
|
100000000000000000000000200000000000000000000000,
|
|
100000000000100000000000100000100000100000000000,
|
|
9,
|
|
8,
|
|
100000000000200000100000000000000000000000000000,
|
|
100000000000200000100000000000000000200000000000,
|
|
000000000000000000000000100000100000100000000000,
|
|
000000000000000000000000200000200000200000000000,
|
|
100000000000200000100000000000000000000000000000,
|
|
100000000000200000100000000000000000200000000000,
|
|
300000000300000000000000300000000300000000000000,
|
|
500000000000000000000000000000000800000000000000,
|
|
#GOGOSTART
|
|
100000000000100000000000100000100000100000000000,
|
|
100000000000100000000000200000200000200000000000,
|
|
300000000000000000000000400000000000000000500000,
|
|
000000000000800000000000300000000000000000000000,
|
|
100000000000100000000000100000100000100000000000,
|
|
100000000000100000000000200000200000200000000000,
|
|
300000000000000000000000400000000000000000500000,
|
|
000000000000800000000000300000000000000000000000,
|
|
100000000000100000000000100000100000200000000000,
|
|
100000000000100000000000100000100000200000000000,
|
|
300000000000000000000000400000000000000000500000,
|
|
000000000000800000000000300000000000000000000000,
|
|
100000000000200000000000100000100000200000000000,
|
|
100000000000200000000000100000100000200000000000,
|
|
300000000000000000000000400000000000000000500000,
|
|
000000000000800000000000300000000000000000500000,
|
|
000000000000800000000000400000000000000000300000,
|
|
000000300000300000000000400000000000400000000000,
|
|
700000000000000000000000000000000000000000000000,
|
|
000000000000000000800000000000000000000000000000,
|
|
#GOGOEND
|
|
100000100000100000000000100000000000100000000000,
|
|
100000100000100000000000200000000000200000000000,
|
|
100000100000100000000000100000000000100000000000,
|
|
100000100000100000000000200000000000200000000000,
|
|
100000100000100000000000100000000000400000000000,
|
|
500000000000000000000000800000000000300000000000,
|
|
|
|
|
|
#END
|
|
|
|
|
|
COURSE:Easy
|
|
LEVEL:3
|
|
BALLOON:8,8,12
|
|
SCOREINIT:680
|
|
SCOREDIFF:263
|
|
|
|
|
|
#START
|
|
|
|
|
|
100000000000000000000000000000000000000000000000,
|
|
200000000000000000000000000000000000000000000000,
|
|
100000000000000000000000000000000000000000000000,
|
|
200000000000000000000000000000000000000000000000,
|
|
100000000000000000000000100000000000000000000000,
|
|
200000000000000000000000200000000000000000000000,
|
|
100000000000000000000000100000000000000000000000,
|
|
200000000000000000000000200000000000000000000000,
|
|
300000000000000000000000300000000000000000000000,
|
|
400000000000000000000000000000000000000000000000,
|
|
#GOGOSTART
|
|
100000000000100000000000100000000000000000000000,
|
|
100000000000100000000000200000000000000000000000,
|
|
300000000000000000000000400000000000000000500000,
|
|
000000000000000000800000000000000000000000000000,
|
|
100000000000100000000000100000000000000000000000,
|
|
100000000000100000000000200000000000000000000000,
|
|
300000000000000000000000400000000000000000500000,
|
|
000000000000000000800000000000000000000000600000,
|
|
000000000000000000800000000000000000000000300000,
|
|
000000000000300000000000400000000000400000000000,
|
|
700000000000000000000000000000000000000000800000,
|
|
#GOGOEND
|
|
000000000000000000000000000000000000000000000000,
|
|
000000000000000000000000000000000000000000000000,
|
|
000000000000000000000000000000000000000000000000,
|
|
100000000000200000000000100000000000000000000000,
|
|
100000000000200000000000100000000000000000000000,
|
|
100000000000000000000000200000000000000000000000,
|
|
300000000000000000000000400000000000000000000000,
|
|
100000000000200000000000100000000000000000000000,
|
|
100000000000200000000000100000000000000000000000,
|
|
100000000000000000000000200000000000000000000000,
|
|
100000000000100000000000100000000000100000000000,
|
|
9,
|
|
8,
|
|
100000000000200000000000000000000000000000000000,
|
|
100000000000200000000000000000000000200000000000,
|
|
000000000000000000000000300000000000000000000000,
|
|
000000000000000000000000400000000000000000000000,
|
|
100000000000200000000000000000000000000000000000,
|
|
100000000000200000000000000000000000200000000000,
|
|
300000000000000000000000300000000000000000000000,
|
|
500000000000000000000000800000000000000000000000,
|
|
#GOGOSTART
|
|
100000000000100000000000100000000000000000000000,
|
|
100000000000100000000000200000000000000000000000,
|
|
300000000000000000000000400000000000000000500000,
|
|
000000000000000000800000000000000000000000000000,
|
|
100000000000100000000000100000000000000000000000,
|
|
100000000000100000000000200000000000000000000000,
|
|
300000000000000000000000400000000000000000500000,
|
|
000000000000000000800000000000000000000000000000,
|
|
100000000000100000000000100000000000000000000000,
|
|
200000000000200000000000200000000000000000000000,
|
|
300000000000000000000000400000000000000000500000,
|
|
000000000000000000800000000000000000000000000000,
|
|
100000000000200000000000100000000000000000000000,
|
|
200000000000200000000000200000000000000000000000,
|
|
300000000000000000000000400000000000000000500000,
|
|
000000000000000000800000000000000000000000600000,
|
|
000000000000000000800000000000000000000000300000,
|
|
000000000000300000000000400000000000400000000000,
|
|
700000000000000000000000000000000000000000000000,
|
|
000000000000000000800000000000000000000000000000,
|
|
#GOGOEND
|
|
100000000000000000000000100000000000000000000000,
|
|
200000000000000000000000200000000000000000000000,
|
|
100000000000100000000000100000000000000000000000,
|
|
200000000000200000000000200000000000000000000000,
|
|
100000000000100000000000100000000000400000000000,
|
|
500000000000000000800000000000000000300000000000,
|
|
|
|
|
|
#END
|
|
|