Files
ESE/01 Pop/Tong Hua/Tong Hua.tja
T

341 lines
9.6 KiB
Plaintext

//TJADB Project
TITLE:Tong Hua
TITLEZH:童話
SUBTITLE:--Michael Wong
SUBTITLEZH:光良
BPM:66.49
WAVE:Tong Hua.ogg
OFFSET:-3.787
DEMOSTART:97.759
COURSE:Oni
LEVEL:6
SCOREINIT:1160
SCOREDIFF:290
#START
000000000000000000000000000000000000000000000000,
#BPMCHANGE 68.57
000000000000000000000000000000000000000000000000,
#BPMCHANGE 67.25
000000000000000000000000000000000000000000000000,
#BPMCHANGE 68.84
100000000000200000000000100000100000200000200000,
#BPMCHANGE 67.42
100000000000200000000000100000100000200000200000,
#BPMCHANGE 68.48
100000000000200000000000100000100000200000500000,
#BPMCHANGE 67.08
000000000000000000000008000000000000000000000000,
#BPMCHANGE 68.66
100000000000200000000000100000100000200000200000,
#BPMCHANGE 69.2
100000000000200000000000100000100000200000200000,
#BPMCHANGE 67.34
100000000000200000000000100000100000100000500000,
#BPMCHANGE 68.63
000000000000000000000008000000000000000000000000,
#BPMCHANGE 68.09
100000100000200000100000100100200000200000100000,
#BPMCHANGE 67.9
100000100000200000100000100100200000200000000000,
#BPMCHANGE 68
100000100000200000100000100100200000200000500000,
000000000000000000000008000000000000000000000000,
#BPMCHANGE 68.17
100000100100200000100000100100200000200000000000,
#BPMCHANGE 68.26
100000100100200000100000100100200000200000000000,
#BPMCHANGE 67.81
100000100100200000100000100100200000200000500000,
#BPMCHANGE 67.77
000000000000000000000008000000000000200200100000,
#BPMCHANGE 68.27
100000100100200000100000100000100100200000100000,
#BPMCHANGE 67.87
100000100100200000100000200200100000200000100000,
100000100100200000200100000000100100200000200200,
#BPMCHANGE 68.29
100000100100200000100100100000200000100000000000,
#BPMCHANGE 67.95
100000100100200000100000100000100100200000100000,
100000100100200000200100000000100100200000100000,
#BPMCHANGE 67.99
100000100100200000100000100000100100200000100000,
#BPMCHANGE 67.83
500000000000000000000008000000100100200200100100,
#GOGOSTART
#BPMCHANGE 68.15
100000100100200100100000100000100100200100100000,
#BPMCHANGE 68
100000100100200000200100000000100100200200200000,
100000100100200000200100000000100100200000200200,
#BPMCHANGE 68.06
100000100100200100100000100000100100200100100000,
#BPMCHANGE 67.87
100000100100200000200200000000200200100000100100,
#BPMCHANGE 68.2
100000100100200000200100000000000000200200100100,
#BPMCHANGE 67.87
100000100100200100100000100000100100200100100000,
#BPMCHANGE 68
500000000000000000000000000000000000000000000008,
#GOGOEND
#END
COURSE:Hard
LEVEL:4
SCOREINIT:1340
SCOREDIFF:330
#START
000000000000000000000000000000000000000000000000,
#BPMCHANGE 68.57
000000000000000000000000000000000000000000000000,
#BPMCHANGE 67.25
000000000000000000000000000000000000000000000000,
#BPMCHANGE 68.84
100000000000200000000000100000100000200000000000,
#BPMCHANGE 67.42
100000000000200000000000100000100000200000000000,
#BPMCHANGE 68.48
100000000000200000000000100000100000200000500000,
#BPMCHANGE 67.08
000000000000000000000008000000000000000000000000,
#BPMCHANGE 68.66
100000000000200000000000100000100000200000000000,
#BPMCHANGE 69.2
100000000000200000000000100000100000200000000000,
#BPMCHANGE 67.34
100000000000200000000000100000100000200000500000,
#BPMCHANGE 68.63
000000000000000000000008000000000000000000000000,
#BPMCHANGE 68.09
100000000000200000100000100000000000200000000000,
#BPMCHANGE 67.9
100000000000200000100000100000000000200000000000,
#BPMCHANGE 68
100000100000200000000000100000100000200000500000,
000000000000000000000080000000000000000000000000,
#BPMCHANGE 68.17
100000000000200000100000100000000000200000000000,
#BPMCHANGE 68.26
100000000000200000100000100000000000200000000000,
#BPMCHANGE 67.81
100000000000200000100000100000000000200000500000,
#BPMCHANGE 67.77
000000000000000000000080000000000000100100100000,
#BPMCHANGE 68.27
100000100100100000000000100000100100100000000000,
#BPMCHANGE 67.87
100000100100100000100000100000000000200000000000,
200000200200200000000000200000200200200000200000,
#BPMCHANGE 68.29
500000000000000000000008000000000000000000000000,
#BPMCHANGE 67.95
100000100100100000000000100000100100100000000000,
100000100100100000100000100000000000200000000000,
#BPMCHANGE 67.99
200000200200200000000000200000200200200000200000,
#BPMCHANGE 67.83
500000000000000000000008000000000000000000000000,
#GOGOSTART
#BPMCHANGE 68.15
100000100100100000100000100000100100100000000000,
#BPMCHANGE 68
100000100100100000100000100000000000200000000000,
200000200200200000200000200000200200200000200000,
#BPMCHANGE 68.06
500000000000000000000080000000000000000000000000,
#BPMCHANGE 67.87
100000100100100000100000100000100100100000000000,
#BPMCHANGE 68.2
100000100100100000100000100000000000200000000000,
#BPMCHANGE 67.87
200000200200200000200000200000200200200000200000,
#BPMCHANGE 68
500000000000000000000000000000000000000000000008,
#GOGOEND
#END
COURSE:Normal
LEVEL:4
SCOREINIT:1590
SCOREDIFF:530
#START
000000000000000000000000000000000000000000000000,
#BPMCHANGE 68.57
000000000000000000000000000000000000000000000000,
#BPMCHANGE 67.25
000000000000000000000000000000000000000000000000,
#BPMCHANGE 68.84
100000000000200000000000100000000000000000000000,
#BPMCHANGE 67.42
100000000000200000000000100000000000000000000000,
#BPMCHANGE 68.48
100000000000200000000000100000000000500000000000,
#BPMCHANGE 67.08
000000000000000000000080000000000000000000000000,
#BPMCHANGE 68.66
100000000000200000000000100000000000000000000000,
#BPMCHANGE 69.2
100000000000200000000000100000000000000000000000,
#BPMCHANGE 67.34
100000000000200000000000100000000000500000000000,
#BPMCHANGE 68.63
000000000000000000000080000000000000000000000000,
#BPMCHANGE 68.09
100000000000100000100000100000000000200000000000,
#BPMCHANGE 67.9
100000000000100000100000100000000000000000000000,
#BPMCHANGE 68
100000000000100000000000100000100000100000500000,
000000000000000000000080000000000000000000000000,
#BPMCHANGE 68.17
100000000000100000100000100000000000200000000000,
#BPMCHANGE 68.26
100000000000100000100000100000000000000000000000,
#BPMCHANGE 67.81
100000000000100000000000100000100000100000500000,
#BPMCHANGE 67.77
000000000000000000000080000000000000000000000000,
#BPMCHANGE 68.27
100000000000100000000000100000100000100000000000,
#BPMCHANGE 67.87
100000100000100000000000100000000000000000000000,
200000000000200000000000200000200000200000200000,
#BPMCHANGE 68.29
500000000000000000000080000000000000000000000000,
#BPMCHANGE 67.95
100000000000100000000000100000100000100000000000,
100000100000100000000000100000000000000000000000,
#BPMCHANGE 67.99
200000000000200000000000200000200000200000200000,
#BPMCHANGE 67.83
500000000000000000000080000000000000000000000000,
#GOGOSTART
#BPMCHANGE 68.15
100000000000100000000000100000100000100000000000,
#BPMCHANGE 68
100000100000100000000000100000000000000000000000,
200000000000200000000000200000200000200000200000,
#BPMCHANGE 68.06
500000000000000000000080000000000000000000000000,
#BPMCHANGE 67.87
100000000000100000000000100000100000100000000000,
#BPMCHANGE 68.2
100000100000100000000000100000000000000000000000,
#BPMCHANGE 67.87
200000000000200000000000200000200000200000200000,
#BPMCHANGE 68
500000000000000000000000000000000000000000000008,
#GOGOEND
#END
COURSE:Easy
LEVEL:2
SCOREINIT:1660
SCOREDIFF:830
#START
000000000000000000000000000000000000000000000000,
#BPMCHANGE 68.57
000000000000000000000000000000000000000000000000,
#BPMCHANGE 67.25
000000000000000000000000000000000000000000000000,
#BPMCHANGE 68.84
100000000000000000000000000000000000100000000000,
#BPMCHANGE 67.42
100000000000000000000000000000000000100000000000,
#BPMCHANGE 68.48
100000000000000000000000100000000000500000000000,
#BPMCHANGE 67.08
000000000000000000000080000000000000000000000000,
#BPMCHANGE 68.66
100000000000000000000000000000000000100000000000,
#BPMCHANGE 69.2
100000000000000000000000000000000000100000000000,
#BPMCHANGE 67.34
100000000000000000000000100000000000500000000000,
#BPMCHANGE 68.63
000000000000000000000080000000000000000000000000,
#BPMCHANGE 68.09
100000000000000000000000100000000000000000000000,
#BPMCHANGE 67.9
100000000000100000000000100000000000000000000000,
#BPMCHANGE 68
100000000000000000000000100000000000500000000000,
000000000000000000000008000000000000000000000000,
#BPMCHANGE 68.17
100000000000000000000000100000000000000000000000,
#BPMCHANGE 68.26
100000000000100000000000100000000000000000000000,
#BPMCHANGE 67.81
100000000000000000000000100000000000500000000000,
#BPMCHANGE 67.77
000000000000000000000008000000000000000000000000,
#BPMCHANGE 68.27
100000000000000000000000100000000000000000000000,
#BPMCHANGE 67.87
100000000000100000000000100000000000000000000000,
200000000000000000000000200000000000200000000000,
#BPMCHANGE 68.29
500000000000000000000008000000000000000000000000,
#BPMCHANGE 67.95
100000000000000000000000100000000000000000000000,
100000000000100000000000100000000000000000000000,
#BPMCHANGE 67.99
200000000000000000000000200000000000200000000000,
#BPMCHANGE 67.83
500000000000000000000008000000000000000000000000,
#GOGOSTART
#BPMCHANGE 68.15
100000000000000000000000100000000000000000000000,
#BPMCHANGE 68
100000000000100000000000100000000000000000000000,
200000000000000000000000200000000000200000000000,
#BPMCHANGE 68.06
500000000000000000000080000000000000000000000000,
#BPMCHANGE 67.87
300000000000000000000000300000000000000000000000,
#BPMCHANGE 68.2
100000000000100000000000100000000000000000000000,
#BPMCHANGE 67.87
200000000000000000000000200000000000200000000000,
#BPMCHANGE 68
500000000000000000000000000000000000000000000008,
#GOGOEND
#END