Files
ESE/01 Pop/Tsuki to Taiyou/Tsuki to Taiyou.tja
T
2023-06-15 19:15:39 -05:00

302 lines
11 KiB
Plaintext
Raw Blame History

This file contains ambiguous Unicode characters
This file contains Unicode characters that might be confused with other characters. If you think that this is intentional, you can safely ignore this warning. Use the Escape button to reveal them.
//TJADB Project
TITLE:Tsuki to Taiyou
TITLEJA:月と太陽
SUBTITLE:--Ketsumeishi/Doubles ~Futari no Deka~
BPM:108
WAVE:Tsuki to Taiyou.ogg
OFFSET:-2.406
DEMOSTART:84.628
COURSE:Oni
LEVEL:8
SCOREINIT:610
SCOREDIFF:150
#START
200000000000200000000000000000000000200000200000,
200000000000200000000000000000000000000000000000,
200000000000200000000000000000000000200000200000,
500000000000000000000000000000000008000000000000,
#GOGOSTART
100000100100200000200100100000100100200000200100,
100000000100200000100000100000200100200000100000,
100000000000200000200100100000100100200000200200,
100000200000100020200000100000200000100000100100,
100000000000200000100200100000100000000000200100,
200000200000000000100000200000100100200000200000,
100000200000000000100000000000000000200000600000,
000000000000000000000000000000000008000000300000,
300000100100200000200100100000100100200000200100,
100000000100200000100000100000200100200000100000,
100000000000200000200100100000100100200000200200,
100000200000100020200000100000200000100000100100,
100000000000200000100200100000100000000000200100,
200000200000000000100000200000100100200000200000,
100000200000000000100000000000000000200000100100,
100000300000300000300000300000300000300000200200,
#GOGOEND
100100000100200000000200100000100000200000200200,
100000200200100000200200100100000100200000200200,
100100100200200200100100100200200200500008000000,
200200200100100100200200200100100100200200000000,
100100100100200000000200100100100100200000000000,
100100100200200200100100100200200200100000200200,
100100100200200200000100100100200200200000100000,
500000000000000000000000000000000008000000300000,
400000200200200000200100100100200000300000400000,
300000000200200000200100100100200000300000400000,
300000000200100010001000200020002000100010001000,
200020002000100010001000200200200100100100200200,
200000000000100000100100200000100200200000000200,
100000100100200000200200100000100100200200000200,
100100100200200200100100100000100000400000000000,
600000000000000000000000000000000000000008000000,
000000000000000000000000000000000000000000000000,
#GOGOSTART
100000100100200000200100100000100100200000200100,
100000000100200000100000100000200100200000100000,
100000000000200000200100100000100100200000200200,
100000200000100020200000100000200000100000100100,
100000000000200000100200100000100000000000200100,
200000200000000000100000200000100100200000200000,
100000200000000000100000000000000000200000600000,
000000000000000000000000000000000008000000300000,
300000100100200000200100100000100100200000200100,
100000000100200000100000100000200100200000100000,
100000000000200000200100100000100100200000200200,
100000200000100020200000100000200000100000100100,
100000000000200000100200100000100000000000200100,
200000200000000000100000200000100100200000200000,
100000200000000000100000000000000000200000100100,
100000300000300000300000300000300000300000000000,
#GOGOEND
400000000000000000000000000000000000000000000000,
#END
COURSE:Hard
LEVEL:5
BALLOON:30,20
SCOREINIT:690
SCOREDIFF:195
#START
200000000000200000000000000000000000200000200000,
200000000000200000000000000000000000000000000000,
200000000000200000000000000000000000200000200000,
500000000000000000000000000000000800000000000000,
#GOGOSTART
000000100100100000100100100000100000100000100000,
100000000000100000100000000000100000000000100000,
100000000000000000100000100000100000000000200000,
000000200200200000100000000000100000000000100000,
100000000000000000200000100000100000000000100000,
100000200000000000200000100000100000000000100000,
100000200000000000100000000000000000000000600000,
000000000000000000000000000000000800000000000000,
000000100100100000100100100000100000100000100000,
100000000000100000100000000000100000000000100000,
100000000000000000100000100000100000000000200200,
200000200200200000100000000000100000000000100000,
100000000000000000200000100000100000000000100000,
100000200000000000200000100000100000000000100000,
100000200000000000100000000000000000000000100100,
100000300000300000300000300000300000300000000000,
#GOGOEND
200000200200200000000000200000200200200000000000,
100000100100100000000000100000100100100000000000,
200000200200200000200000200000200200200000000000,
100000100100100000100000300000300000300000000000,
100000100100100000000000200000200200200000000000,
100000100100100000100000200000200200200000000000,
100000100100100000100000200000200200200000200000,
500000000000000000000000000000000800000000000000,
400000000000400000300000300000300000300000400000,
300000000000400000300000300000300000300000400000,
300000000700000000000000000000000000000000000000,
000000000000000000000000000000000800000000000000,
100000000000100000100100100000200200200000000000,
100000000000100000100100100000200200200000000000,
300000300000300000300000400000400000400000000000,
700000000000000000000000000000000000000000000800,
000000000000000000000000000000000000000000000000,
#GOGOSTART
000000100100100000100100100000100000100000100000,
100000000000100000100000000000100000000000100000,
100000000000000000100000100000100000000000200000,
000000200200200000100000000000100000000000100000,
100000000000000000200000100000100000000000100000,
100000200000000000200000100000100000000000100000,
100000200000000000100000000000000000000000600000,
000000000000000000000000000000000800000000000000,
000000100100100000100100100000100000100000100000,
100000000000100000100000000000100000000000100000,
100000000000000000100000100000100000000000200200,
200000200200200000100000000000100000000000100000,
100000000000000000200000100000100000000000100000,
100000200000000000200000100000100000000000100000,
100000200000000000100000000000000000000000100100,
100000300000300000300000300000300000300000000000,
#GOGOEND
400000000000000000000000000000000000000000000000,
#END
COURSE:Normal
LEVEL:4
BALLOON:20,14,15
SCOREINIT:770
SCOREDIFF:245
#START
200000000000200000000000000000000000200000000000,
200000000000200000000000000000000000000000000000,
200000000000200000000000000000000000200000000000,
500000000000000000000000000000800000000000000000,
#GOGOSTART
100000000000100000000000100000000000100000000000,
100000000000100000100000000000100000000000100000,
100000000000000000100000100000100000000000100000,
000000100000100000100000000000100000000000100000,
100000000000000000100000100000100000000000200000,
200000200000000000100000100000100000000000200000,
200000200000000000100000000000000000000000600000,
000000000000000000000000000000800000000000000000,
100000000000100000000000100000000000100000000000,
100000000000100000100000000000100000000000100000,
100000000000000000100000100000100000000000100000,
100000000000100000100000000000100000000000100000,
100000000000000000100000100000100000000000200000,
200000200000000000100000100000100000000000200000,
200000200000000000100000000000000000000000000000,
300000000000300000000000300000000000000000000000,
#GOGOEND
200000000000200000000000200000000000200000000000,
100000000000100000000000100000000000000000000000,
200000000000200000000000200000000000200000000000,
100000000000100000000000300000000000000000000000,
100000000000100000000000200000000000200000000000,
100000100000100000000000200000200000200000000000,
100000000000100000000000200000000000200000000000,
500000000000000000000000000000800000000000000000,
400000000000000000000000000000000000300000300000,
300000000000000000000000000000000000300000300000,
300000000700000000000000000000000000000000000000,
000000000000000000000000000000000800000000000000,
100000000000100000000000100000100000200000000000,
100000000000100000000000100000100000200000000000,
300000000000300000000000300000300000400000000000,
700000000000000000000000000000000000000000800000,
000000000000000000000000000000000000000000000000,
#GOGOSTART
100000000000100000000000100000000000100000000000,
100000000000100000100000000000100000000000100000,
100000000000000000100000100000100000000000100000,
000000100000100000100000000000100000000000100000,
100000000000000000100000100000100000000000200000,
200000200000000000100000100000100000000000200000,
200000200000000000100000000000000000000000600000,
000000000000000000000000000000800000000000000000,
100000000000100000000000100000000000100000000000,
100000000000100000100000000000100000000000100000,
100000000000000000100000100000100000000000100000,
100000000000100000100000000000100000000000100000,
100000000000000000100000100000100000000000200000,
200000200000000000100000100000100000000000200000,
200000200000000000100000000000000000000000700000,
000000000000000000000000000000000000000000000008,
#GOGOEND
#END
COURSE:Easy
LEVEL:3
BALLOON:15,8,9
SCOREINIT:760
SCOREDIFF:322
#START
200000000000200000000000000000000000000000000000,
200000000000200000000000000000000000000000000000,
200000000000200000000000000000000000000000000000,
500000000000000000000000000000800000000000000000,
#GOGOSTART
100000000000100000000000100000000000100000000000,
100000000000000000000000100000000000000000000000,
100000000000000000000000100000000000000000000000,
100000000000100000000000100000000000100000000000,
100000000000000000000000200000000000000000000000,
100000000000000000000000200000000000000000000000,
100000000000100000000000100000000000000000600000,
000000000000000000000000000000800000000000000000,
100000000000100000000000100000000000100000000000,
100000000000000000000000100000000000000000000000,
100000000000000000000000100000000000000000000000,
100000000000100000000000100000000000100000000000,
100000000000000000000000200000000000000000000000,
100000000000000000000000200000000000000000000000,
100000000000100000000000100000000000000000000000,
300000000000300000000000300000000000000000000000,
#GOGOEND
100000000000000000000000100000000000000000000000,
100000000000100000000000100000000000000000000000,
100000000000000000000000100000000000000000000000,
200000000000200000000000200000000000000000000000,
100000000000100000000000200000000000200000000000,
100000000000100000000000100000000000000000000000,
100000000000100000000000200000000000200000000000,
500000000000000000000000800000000000000000000000,
400000000000000000000000000000000000400000000000,
300000000000000000000000000000000000400000000000,
300000000700000000000000000000000000000000000000,
000000000000000000000000800000000000000000000000,
100000000000000000000000100000000000200000000000,
100000000000000000000000100000000000200000000000,
300000000000300000000000400000000000400000000000,
700000000000000000000000000000000000800000000000,
000000000000000000000000000000000000000000000000,
#GOGOSTART
100000000000100000000000100000000000100000000000,
100000000000000000000000100000000000000000000000,
100000000000000000000000100000000000000000000000,
100000000000100000000000100000000000100000000000,
100000000000000000000000200000000000000000000000,
100000000000000000000000200000000000000000000000,
100000000000100000000000100000000000000000600000,
000000000000000000000000000000800000000000000000,
100000000000100000000000100000000000100000000000,
100000000000000000000000100000000000000000000000,
100000000000000000000000100000000000000000000000,
100000000000100000000000100000000000100000000000,
100000000000000000000000200000000000000000000000,
100000000000000000000000200000000000000000000000,
100000000000100000000000100000000000000000700000,
000000000000000000000000000000000000000000800000,
#GOGOEND
#END