Files
ESE/01 Pop/UFO/UFO.tja
T
2023-06-15 19:15:39 -05:00

334 lines
12 KiB
Plaintext

//TJADB Project
TITLE:UFO
TITLEJA:UFO
SUBTITLE:--Pink Lady
SUBTITLEJA:シバガキ feat. A.Dokuga
BPM:164
WAVE:UFO.ogg
OFFSET:-9.778
DEMOSTART:68.223
COURSE:Oni
LEVEL:2
BALLOON:10,10
#START
300000000000000000000000400000000000000000000000,
300000000000000000000000400000000000000000000000,
500000000000000000000000000000000008000000000000,
000000000000300000000000300000000000100010001000,
100000000000100000000000100000000000100010001000,
100000000000100000000000100000000000100010001000,
100000000000100000000000100000000000100010001000,
100000000000100000000000100000000000100010001000,
100000000000100000000000100000001000100000001000,
100000001000100000001000100000001000000000001000,
100000000000100000000000100000000000100010001000,
100000000000100000000000100000000000100010001000,
100000000000100000000000100000001000100000001000,
100000001000100000001000100000001000000000001000,
100000000000100000000000100010001000100000000000,
300000003000000000003000000000000000000000000000,
100000001000100000001000100000001000100000001000,
100000000000100000001000000000000000000000000000,
200000002000200000002000200000002000200000002000,
200000000000200000002000000000000000000000000000,
100000001000100000001000100000001000100000001000,
100000001000100000001000100000000000100000001000,
700000000000000000000000000000000000000000000000,
000000000000000000000000000000000000800000000000,
100000000000100000000000100000001000100000001000,
100000001000100000001000100000001000000000001000,
100000000000100000000000100000000000100010001000,
100000000000100000000000100000000000100010001000,
100000000000100000000000100000001000100000001000,
100000001000100000001000100000001000000000001000,
100000000000100000000000100010001000100000000000,
300000003000000000003000000000000000000000000000,
200000002000200000002000200000002000200000002000,
200000000000200000002000000000000000000000000000,
100000001000100000001000100000001000100000001000,
100000000000100000001000000000000000000000000000,
100000001000100000001000100000001000100000001000,
100000001000100000001000100000000000100000001000,
700000000000000000000000000000000000000000000000,
000000000000000000000000000000000000800000000000,
100000001000000000002000000000000000000000000000,
100000001000000000002000000000000000000000000000,
100000001000000000002000000000000000200000000000,
100000001000000000002000000000000000000000000000,
100000001000000000001000000000001000100000001000,
100000001000000000001000000000001000100000001000,
100000000000100000001000100000000000100000005000,
000000000000000000000000000000000008000000000000,
100000000000100000000000100000000000100000000000,
100000000000100000001000000000000000000000000000,
100000000000100000000000100000000000100000000000,
100000000000100000001000000000000000000000000000,
#BPMCHANGE 161.5
#SCROLL 1.01547987616
100000001000000010000000100000000000000000000000,
#BPMCHANGE 161
#SCROLL 1.01863354037
200000002000000020000000200000000000000000000000,
#BPMCHANGE 162
#SCROLL 1.01234567901
100000001000000010000000100000001000000010000000,
#BPMCHANGE 163
#SCROLL 1.00613496933
100000000000000000000000
#BPMCHANGE 166.5
#SCROLL 0.98498498498
300000000000000000000000,
#END
COURSE:Hard
LEVEL:3
BALLOON:10,10
SCOREINIT:760
SCOREDIFF:190
#START
300000000000000000000000400000000000000000000000,
300000000000000000000000400000000000000000000000,
500000000000000000000000000000000008000000000000,
000000000000300000000000300000000000100010001000,
100000000000100000000000100000000000100010001000,
100000000000100000000000100000000000100010001000,
100000000000100000000000100000000000100010001000,
100000000000100000000000100000000000100010001000,
100000000000100000000000100000001000100000001000,
100000001000100000001000100000001000000000001000,
100000000000100000000000100000000000100010001000,
100000000000100000000000100000000000100010001000,
100000000000100000000000100000001000100000001000,
100000001000100000001000100000001000000000001000,
100000000000100000000000100010001000100000000000,
300000003000000000003000000000000000000000000000,
100000001000100000001000100000001000100000001000,
100000000000100000001000000000000000000000000000,
200000002000200000002000200000002000200000002000,
200000000000200000002000000000000000000000000000,
100000001000100000001000100000001000100000001000,
100000001000100000001000100000000000100000001000,
700000000000000000000000000000000000000000000000,
000000000000000000000000000000000000800000000000,
100000000000100000000000100000001000100000001000,
100000001000100000001000100000001000000000001000,
100000000000100000000000100000000000100010001000,
100000000000100000000000100000000000100010001000,
100000000000100000000000100000001000100000001000,
100000001000100000001000100000001000000000001000,
100000000000100000000000100010001000100000000000,
300000003000000000003000000000000000000000000000,
200000002000200000002000200000002000200000002000,
200000000000200000002000000000000000000000000000,
100000001000100000001000100000001000100000001000,
100000000000100000001000000000000000000000000000,
100000001000100000001000100000001000100000001000,
100000001000100000001000100000000000100000001000,
700000000000000000000000000000000000000000000000,
000000000000000000000000000000000000800000000000,
100000001000000000002000000000000000000000000000,
100000001000000000002000000000000000000000000000,
100000001000000000002000000000000000200000000000,
100000001000000000002000000000000000000000000000,
100000001000000000001000000000001000100000001000,
100000001000000000001000000000001000100000001000,
100000000000100000001000100000000000100000005000,
000000000000000000000000000000000008000000000000,
100000000000100000000000100000000000100000000000,
100000000000100000001000000000000000000000000000,
100000000000100000000000100000000000100000000000,
100000000000100000001000000000000000000000000000,
#BPMCHANGE 161.5
#SCROLL 1.01547987616
100000001000000010000000100000000000000000000000,
#BPMCHANGE 161
#SCROLL 1.01863354037
200000002000000020000000200000000000000000000000,
#BPMCHANGE 162
#SCROLL 1.01234567901
100000001000000010000000100000001000000010000000,
#BPMCHANGE 163
#SCROLL 1.00613496933
100000000000000000000000
#BPMCHANGE 166.5
#SCROLL 0.98498498498
300000000000000000000000,
#END
COURSE:Normal
LEVEL:2
SCOREINIT:1060
SCOREDIFF:320
#START
100000000000000000000000000000000000000000000000,
100000000000000000000000000000000000000000000000,
100000000000000000000000000000000000000000000000,
000000000000300000000000300000000000000000000000,
100000000000100000000000100000000000000000000000,
100000000000100000000000100000000000000000000000,
100000000000100000000000100000000000000000000000,
100000000000100000000000100000000000000000000000,
100000000000100000000000200000000000200000000000,
100000000000100000000000200000000000200000000000,
100000000000100000000000100000000000000000000000,
100000000000100000000000100000000000000000000000,
100000000000100000000000200000000000200000000000,
100000000000100000000000200000000000200000000000,
100000000000100000000000100000000000100000000000,
300000000000000000000000000000000000000000000000,
200000000000000000000000200000000000000000000000,
100000000000100000001000000000000000000000000000,
200000000000000000000000200000000000000000000000,
100000000000100000001000000000000000000000000000,
100000000000100000000000100000000000100000000000,
100000000000100000000000100000000000100000001000,
000000000000000000000000000000000000000000000000,
200000000000000000000000000000000000000000000000,
100000000000100000000000200000000000200000000000,
100000000000100000000000200000000000200000000000,
100000000000100000000000100000000000000000000000,
100000000000100000000000100000000000000000000000,
100000000000100000000000200000000000200000000000,
100000000000100000000000200000000000200000000000,
100000000000100000000000100000000000100000000000,
300000000000000000000000000000000000000000000000,
200000000000000000000000200000000000000000000000,
100000000000100000001000000000000000000000000000,
200000000000000000000000200000000000000000000000,
100000000000100000001000000000000000000000000000,
100000000000100000000000100000000000100000000000,
100000000000100000000000100000000000100000001000,
000000000000000000000000000000000000000000000000,
500000000000000000000000000000008000000000000000,
100000001000000000001000000000000000000000000000,
100000001000000000001000000000000000000000000000,
100000001000000000001000000000000000000000000000,
100000001000000000001000000000000000000000000000,
300000000000000000003000000000000000000000000000,
300000000000000000003000000000000000000000000000,
300000000000000000000000300000000000000000003000,
000000000000000000000000000000000000000000000000,
100000000000100000000000100000000000100000000000,
100000000000100000001000000000000000000000000000,
200000000000200000000000200000000000200000000000,
200000000000200000002000000000000000000000000000,
#BPMCHANGE 161.5
#SCROLL 1.01547987616
100000001000000010000000100000000000000000000000,
#BPMCHANGE 161
#SCROLL 1.01863354037
100000001000000010000000100000000000000000000000,
#BPMCHANGE 162
#SCROLL 1.01234567901
100000001000000010000000100000001000000010000000,
#BPMCHANGE 163
#SCROLL 1.00613496933
100000000000000000000000
#BPMCHANGE 166.5
#SCROLL 0.98498498498
300000000000000000000000,
#END
COURSE:Easy
LEVEL:4
SCOREINIT:1170
SCOREDIFF:400
#START
100000000000000000000000000000000000000000000000,
100000000000000000000000000000000000000000000000,
500000000000000000000000000000800000000000000000,
000000000000300000000000300000000000000000000000,
100000000000100000000000100000000000000000000000,
100000000000100000000000100000000000000000000000,
100000000000100000000000100000000000000000000000,
100000000000100000000000100000000000000000000000,
100000000000100000000000200000000000000000000000,
100000000000100000000000200000000000000000000000,
100000000000100000000000100000000000000000000000,
100000000000100000000000100000000000000000000000,
100000000000100000000000200000000000000000000000,
100000000000100000000000200000000000000000000000,
100000000000100000000000100000000000100000000000,
300000000000000000000000000000000000000000000000,
200000000000000000000000000000000000000000000000,
100000000000000000001000000000000000000000000000,
200000000000000000000000000000000000000000000000,
100000000000000000001000000000000000000000000000,
100000000000000000000000100000000000000000000000,
100000000000100000000000100000000000000000001000,
000000000000000000000000000000000000000000000000,
200000000000000000000000000000000000000000000000,
100000000000100000000000200000000000000000000000,
100000000000100000000000200000000000000000000000,
100000000000100000000000100000000000000000000000,
100000000000100000000000100000000000000000000000,
100000000000100000000000200000000000000000000000,
100000000000100000000000200000000000000000000000,
100000000000100000000000100000000000100000000000,
300000000000000000000000000000000000000000000000,
200000000000000000000000000000000000000000000000,
100000000000000000001000000000000000000000000000,
200000000000000000000000000000000000000000000000,
100000000000000000001000000000000000000000000000,
100000000000000000000000100000000000000000000000,
100000000000100000000000100000000000000000001000,
000000000000000000000000000000000000000000000000,
500000000000000000000000000000008000000000000000,
100000000000000000001000000000000000000000000000,
100000000000000000001000000000000000000000000000,
100000000000000000001000000000000000000000000000,
100000000000000000001000000000000000000000000000,
300000000000000000000000000000000000000000000000,
300000000000000000000000000000000000000000000000,
300000000000000000000000300000000000000000003000,
000000000000000000000000000000000000000000000000,
100000000000100000000000100000000000100000000000,
100000000000000000001000000000000000000000000000,
100000000000100000000000100000000000100000000000,
100000000000000000001000000000000000000000000000,
#BPMCHANGE 161.5
#SCROLL 1.01547987616
100000001000000010000000100000000000000000000000,
#BPMCHANGE 161
#SCROLL 1.01863354037
100000001000000010000000100000000000000000000000,
#BPMCHANGE 162
#SCROLL 1.01234567901
100000001000000010000000100000001000000010000000,
#BPMCHANGE 163
#SCROLL 1.00613496933
100000000000000000000000
#BPMCHANGE 166.5
#SCROLL 0.98498498498
300000000000000000000000,
#END