Files
ESE/01 Pop/Ukiyo CROSSING/Ukiyo CROSSING.tja
T
2023-09-16 17:39:30 -05:00

326 lines
13 KiB
Plaintext

//TJADB Project
TITLE:Ukiyo CROSSING
TITLEJA:浮世CROSSING
SUBTITLE:--UVERworld
BPM:171
WAVE:Ukiyo CROSSING.ogg
OFFSET:-8.568
DEMOSTART:59.788
COURSE:Oni
LEVEL:6
SCOREINIT:720
SCOREDIFF:170
#START
300000000000000000000000000000000000000000000000,
300000000000000000200000000000200000100000100000,
300000000000000000000000000000000000000000000000,
300000000000100100100000300000000000100100100000,
100000000000000000000000100000000000000000000000,
100000000000000000000000100000000000000000000000,
300000000000300000000000300000000000000000000000,
300000000000300000000000400000000000300000000000,
100000000000200000000100100000100000200000000000,
100000100000200000000200100000100000200000000000,
100000100000200000000200100000100000200000100000,
000000300000300000300000300000000000000000000000,
100000000000200000000000100000100000200000100000,
000000100000000000100000100000100000200000100000,
100000100000200000100100100000100000200000100000,
000000100000000000100000100000100000200000100100,
100000100000200000000000100000100000200000100000,
000000100000000000100100100000100000200000000000,
100000100000200000100000100000200000100000200000,
100000100000200000100000100100100000100100100000,
100000000000200000000000100000100000200000100000,
000000100000000000100000100000100000200000100000,
100000100000200000100100100000100000200000100000,
000000100000200000100000500000000000000008000000,
100000000000200000000000100000100000200000000000,
100000100000200000000000100000100000200000000000,
100000100000200000000000100000100000200000000000,
100000100000200000100000100000200000000000000000,
100000000000000000100000000000000000200000000000,
100000000000000000100000000000000000200000000000,
100000000000000000100000000000000000200000000000,
100000000000000000100000000000100000100000100000,
100000000000200000100000000000100000200000100000,
100000200000000000200000100000000000100000100100,
100000200000200000100000200000200000100000200000,
100000200000200000100000200000200000100000000000,
000000000000000000000000000000000000000000000000,
#GOGOSTART
100000000000200000000100100000100000200000000000,
100000100000200000000200100000100000200000100000,
100000100000200000000200100000100000200000100000,
100000100000200000000200100000100000200000100000,
100000100000200000000100100000100000200000000000,
100000100000200000000100100000100000200000000000,
300000000000300000000000300000000000000000000000,
300000000000300000000000100000100100100100100100,
100000000000200000000100100000100000200000000000,
100000100000200000000200100000100000200000100000,
100000100000200000000200100000100000200000100000,
100000000000200000000100100000100000200000000000,
100000000000200000000100100000100000200000000000,
100000000000200000000100100000100000200000000000,
100000000000200000000100100000100000200000000000,
100000100000200000000000100000100100100100100100,
100000000000200000000000100000100000200000000000,
100000100000200000100100100000100000200000100000,
100000100000200000000000100000100000200000000000,
100000100000200000100100100000100000200000100000,
100000100000200000000000100000100000200000000000,
100000100000200000000000300000000000300000000000,
100000000000100000100000000000100000000000100000,
000000100000100000000000200000000000000000000000,
100000100100100000200000200000100100100000200000,
000000300000300000300000300000000000000000000000,
#GOGOEND
#END
COURSE:Hard
LEVEL:5
SCOREINIT:880
SCOREDIFF:220
#START
300000000000000000000000000000000000000000000000,
300000000000000000000000000000000000000000000000,
300000000000000000000000000000000000000000000000,
300000000000000000000000000000000000000000000000,
100000000000000000000000100000000000000000000000,
100000000000000000000000100000000000000000000000,
300000000000300000000000300000000000000000000000,
300000000000300000000000300000000000000000000000,
100000000000200000000000100000100000100000000000,
100000000000200000000000100000100000100000000000,
100000000000200000000000100000000000100000100000,
000000100000100000100000100000000000000000000000,
100000000000200000000000100000000000100000100000,
100000000000100000000000100000000000000000000000,
100000000000200000000000100000000000100000100000,
100000000000100000000000100000000000100000100000,
100000000000200000000000100000100000100000000000,
100000000000200000000000100000100000100000000000,
100000000000200000000000100000000000200000000000,
100000000000200000000000100000100000100000000000,
100000000000200000000000100000000000100000100000,
100000000000100000000000100000000000000000000000,
100000000000200000000000100000000000100000100000,
100000000000100000000000100000000000100000100000,
100000000000200000000000100000100000100000000000,
100000000000200000000000100000100000100000000000,
100000000000200000000000100000000000200000000000,
100000000000200000000000100000100000000000000000,
100000000000000000100000100000000000000000000000,
100000000000000000200000200000000000000000000000,
100000000000000000100000100000000000000000000000,
100000000000000000200000000000100000100000000000,
100000000000100000100000000000000000100000000000,
000000100000000000100000100000000000100000000000,
100000000000000000100000000000000000100000000000,
500000000000000000000000000000000000000000000080,
000000000000000000000000000000000000000000000000,
#GOGOSTART
100000000000200000000000100000100000100000000000,
100000000000200000000000100000000000200000000000,
100000100000100000000000100000100000100000000000,
100000000000200000000000000000100000100000100000,
000000200000200000100000000000100000100000100000,
000000200000200000100000000000100000200000000000,
300000000000300000000000300000000000000000000000,
300000000000300000000000000000000000000000000000,
100000000000200000000000100000100000100000000000,
100000000000200000000000100000000000200000000000,
100000100000100000000000100000100000100000000000,
100000000000200000000000000000100000100000100000,
000000200000200000100000000000100000100000100000,
000000200000200000100000000000100000100000100000,
000000100000000000100000000000100000100000100000,
000000200000200000100000100000000000100000000000,
100000000000200000000000100000100000100000000000,
100000000000200000000000100000100000000000100000,
000000100000000000100000000000100000000000100000,
100000000000200000000000100000100000100000000000,
100000000000000000100000100000000000000000000000,
100000000000000000100000100000000000000000000000,
100000000000200000100000000000100000000000100000,
000000500000000000000000000000000000000000000000,
000000000000000000000000000000800000000000000000,
000000300000300000300000300000000000000000000000,
#GOGOEND
#END
COURSE:Normal
LEVEL:3
BALLOON:20,16
SCOREINIT:1150
SCOREDIFF:380
#START
300000000000000000000000000000000000000000000000,
300000000000000000000000000000000000000000000000,
300000000000000000000000000000000000000000000000,
300000000000000000000000000000000000000000000000,
100000000000000000000000100000000000000000000000,
100000000000000000000000100000000000000000000000,
100000000000100000000000100000000000000000000000,
300000000000300000000000300000000000000000000000,
700000000000000000000000000000000000000000000000,
000000000000000000000000000000000000000000000000,
000000000000000000000000000000000000800000000000,
000000000000000000000000000000000000000000000000,
100000000000100000000000000000000000000000000000,
100000000000100000000000100000000000000000000000,
100000000000100000000000000000000000000000000000,
100000000000100000000000100000000000000000000000,
100000000000200000000000100000000000000000000000,
100000000000200000000000100000000000000000000000,
100000000000000000000000100000000000000000000000,
100000000000000000000000100000000000100000000000,
100000000000100000000000000000000000000000000000,
100000000000100000000000100000000000000000000000,
100000000000000000000000100000000000000000000000,
500000000000000000000000000000800000000000000000,
100000000000000000000000100000000000000000000000,
100000000000000000000000100000000000000000000000,
100000000000000000000000100000000000000000000000,
100000000000100000000000100000000000000000000000,
100000000000000000200000200000000000000000000000,
100000000000000000200000200000000000000000000000,
100000000000000000200000200000000000000000000000,
100000000000000000000000000000000000000000000000,
100000000000000000100000000000000000000000000000,
100000000000000000100000000000000000000000000000,
100000000000000000100000000000000000000000000000,
500000000000000000000000000000000000000000800000,
000000000000000000000000000000000000000000000000,
#GOGOSTART
300000000000000000000000000000000000100000000000,
100000000000000000000000100000000000000000000000,
100000000000000000000000100000000000100000000000,
100000000000000000000000000000000000100000000000,
100000000000100000000000000000000000100000000000,
100000000000100000000000000000000000000000000000,
100000000000100000000000100000000000000000000000,
300000000000300000000000000000000000000000000000,
300000000000000000000000000000000000100000000000,
100000000000000000000000100000000000000000000000,
100000000000000000000000100000000000100000000000,
100000000000000000000000000000000000100000000000,
100000000000100000000000000000000000100000000000,
100000000000100000000000000000000000100000000000,
100000000000000000000000000000000000100000000000,
100000000000000000000000100000000000100000000000,
100000000000000000000000200000000000000000000000,
100000000000000000000000100000000000100000000000,
100000000000000000000000200000000000000000000000,
100000000000000000000000000000000000100000000000,
100000000000000000000000100000000000000000000000,
100000000000000000000000100000000000000000000000,
100000000000100000000000000000000000000000000000,
700000000000000000000000000000000000000000000000,
000000000000000000000000000000000000000000000008,
#GOGOEND
#END
COURSE:Easy
LEVEL:3
BALLOON:16,12
SCOREINIT:1120
SCOREDIFF:590
#START
300000000000000000000000000000000000000000000000,
300000000000000000000000000000000000000000000000,
300000000000000000000000000000000000000000000000,
300000000000000000000000000000000000000000000000,
100000000000000000000000100000000000000000000000,
100000000000000000000000100000000000000000000000,
300000000000000000000000000000000000000000000000,
300000000000000000000000000000000000000000000000,
700000000000000000000000000000000000000000000000,
000000000000000000000000000000000000000000000000,
000000000000000000000000000000000000800000000000,
000000000000000000000000000000000000000000000000,
100000000000000000000000000000000000000000000000,
100000000000000000000000100000000000000000000000,
100000000000000000000000000000000000000000000000,
100000000000000000000000100000000000000000000000,
100000000000000000000000000000000000000000000000,
100000000000100000000000100000000000000000000000,
100000000000000000000000100000000000000000000000,
100000000000000000000000000000000000000000000000,
100000000000000000000000000000000000000000000000,
100000000000000000000000100000000000000000000000,
100000000000000000000000100000000000000000000000,
500000000000000000000000800000000000000000000000,
100000000000000000000000100000000000000000000000,
100000000000000000000000100000000000000000000000,
100000000000000000000000000000000000000000000000,
100000000000000000000000000000000000000000000000,
100000000000000000000000200000000000000000000000,
100000000000000000000000200000000000000000000000,
100000000000000000000000100000000000000000000000,
100000000000000000000000000000000000000000000000,
100000000000000000000000000000000000000000000000,
100000000000000000000000000000000000000000000000,
100000000000000000000000000000000000000000000000,
500000000000000000000000000000000000800000000000,
000000000000000000000000000000000000000000000000,
#GOGOSTART
300000000000000000000000000000000000000000000000,
300000000000000000000000000000000000000000000000,
300000000000000000000000000000000000000000000000,
300000000000000000000000000000000000000000000000,
100000000000000000000000000000000000100000000000,
100000000000000000000000000000000000000000000000,
300000000000000000000000000000000000000000000000,
300000000000000000000000000000000000000000000000,
300000000000000000000000000000000000000000000000,
300000000000000000000000000000000000000000000000,
300000000000000000000000000000000000000000000000,
300000000000000000000000000000000000000000000000,
100000000000000000000000000000000000100000000000,
100000000000000000000000000000000000000000000000,
100000000000000000000000000000000000100000000000,
100000000000000000000000000000000000000000000000,
100000000000000000000000000000000000100000000000,
100000000000000000000000100000000000000000000000,
100000000000000000000000100000000000000000000000,
100000000000000000000000000000000000000000000000,
100000000000000000000000100000000000000000000000,
100000000000000000000000100000000000000000000000,
100000000000000000000000000000000000000000000000,
700000000000000000000000000000000000000000000000,
000000000000000000000000000000000000000000000008,
#GOGOEND
#END