256 lines
5.2 KiB
Plaintext
256 lines
5.2 KiB
Plaintext
//TJADB Project
|
|
TITLE:Umi Yuki
|
|
TITLEJA:海雪
|
|
SUBTITLE:--Jero
|
|
BPM:105
|
|
WAVE:Umi Yuki.ogg
|
|
OFFSET:-4.283
|
|
DEMOSTART:81.977
|
|
|
|
COURSE:Oni
|
|
LEVEL:6
|
|
BALLOON:6,10
|
|
SCOREINIT:1030
|
|
SCOREDIFF:230
|
|
|
|
|
|
#START
|
|
|
|
|
|
1000201011102010,
|
|
1000201021102010,
|
|
1000201011102010,
|
|
500000000000000000000008000000000000100100200200,
|
|
1000201011102010,
|
|
1000201000002010,
|
|
500000008000000000100000500000008000000000100000,
|
|
7000800011221120,
|
|
3000000000004000,
|
|
1000201011102000,
|
|
1000201011102020,
|
|
1000201011102000,
|
|
1000201011102020,
|
|
1120112010201120,
|
|
1000201011102220,
|
|
500000000000000000000000000000000000000008000000,
|
|
0000201010102000,
|
|
1000201012102010,
|
|
1000201010102000,
|
|
1000201012102010,
|
|
1000201010102000,
|
|
1000201012102010,
|
|
1000201010102000,
|
|
500000000000000000000000000000000000000000000008,
|
|
,
|
|
1000201110101020,
|
|
1000201120112000,
|
|
1000201110101020,
|
|
1000201120112000,
|
|
1022202000101010,
|
|
2022202000102020,
|
|
1000200010102000,
|
|
343434,
|
|
304030222200,
|
|
|
|
#GOGOSTART
|
|
1110020111111040,
|
|
1111202011112020,
|
|
1020101210201012,
|
|
1020111110002020,
|
|
1111222211221122,
|
|
7000008000001020,
|
|
500000000000000000008000000000000000300000000000,
|
|
3000400030000000,
|
|
000000000000600000000000000000000000000000000008,
|
|
|
|
|
|
#END
|
|
|
|
|
|
COURSE:Hard
|
|
LEVEL:4
|
|
BALLOON:10,8
|
|
SCOREINIT:1010
|
|
SCOREDIFF:360
|
|
|
|
|
|
#START
|
|
|
|
|
|
1000201000102010,
|
|
1000200010201000,
|
|
1000201000102010,
|
|
1000200010201000,
|
|
1000201010002000,
|
|
1000201010002010,
|
|
5000800050008000,
|
|
7000000000008000,
|
|
3000000000000000,
|
|
1000200010102000,
|
|
0000100020000010,
|
|
1000200010102000,
|
|
0000100020000010,
|
|
1000200010102000,
|
|
1000201010102000,
|
|
5000000000000080,
|
|
0000200010102000,
|
|
1000200010102000,
|
|
0000200010102000,
|
|
1000200010102000,
|
|
0000200010102000,
|
|
1000200010102000,
|
|
1000200010102000,
|
|
5000000000000000,
|
|
8000000000000000,
|
|
1000201010002000,
|
|
1000200020002000,
|
|
1000201010002000,
|
|
1000200020002000,
|
|
1011101000101000,
|
|
1000102000102000,
|
|
1000200010002000,
|
|
0050000000000000,
|
|
8000000000000000,
|
|
|
|
#GOGOSTART
|
|
3000102011102000,
|
|
3000102011102000,
|
|
1020200010202000,
|
|
1020201020000000,
|
|
3020302030203020,
|
|
7000000000801020,
|
|
5000000080003000,
|
|
3000000030000000,
|
|
0000600000000000,
|
|
8000000000000000,
|
|
0000000000000000,
|
|
|
|
|
|
#END
|
|
|
|
|
|
COURSE:Normal
|
|
LEVEL:3
|
|
BALLOON:5,6
|
|
SCOREINIT:1470
|
|
SCOREDIFF:450
|
|
|
|
|
|
#START
|
|
|
|
|
|
100000000000100000100000000000000000200000000000,
|
|
100000000000000000000000000000000000000000000000,
|
|
100000000000100000100000000000000000200000000000,
|
|
100000000000000000000000000000000000000000000000,
|
|
100000000000000000000000100000000000100000000000,
|
|
100000000000000000000000100000000000100000000000,
|
|
100000000000000000000000100000000000000000000000,
|
|
700000000000000000000000000000800000000000000000,
|
|
300000000000000000000000000000000000000000000000,
|
|
100000000000000000000000100000100000100000000000,
|
|
100000000000000000000000200000000000000000000000,
|
|
100000000000000000000000100000100000100000000000,
|
|
100000000000000000000000100000000000000000000000,
|
|
100000000000100000000000100000000000100000000000,
|
|
500000000000000000000000000000000000000000800000,
|
|
000000000000000000000000000000000000000000000000,
|
|
000000000000100000000000100000100000100000000000,
|
|
200000000000000000000000000000000000000000000000,
|
|
000000000000100000000000100000100000100000000000,
|
|
200000000000000000000000200000000000000000000000,
|
|
000000000000100000000000100000100000100000000000,
|
|
200000000000000000000000200000000000000000000000,
|
|
000000000000100000000000100000100000100000000000,
|
|
500000000000000000000000000000000000000000800000,
|
|
000000000000000000000000000000000000000000000000,
|
|
100000000000000000100000100000000000200000000000,
|
|
100000000000000000000000000000000000000000000000,
|
|
100000000000000000100000100000000000200000000000,
|
|
100000000000000000000000000000000000000000000000,
|
|
100000000000000000000000100000100000100000000000,
|
|
100000000000100000000000000000000000100000000000,
|
|
100000000000200000000000100000000000200000000000,
|
|
000000000000500000000000000000000000000000800000,
|
|
000000000000000000000000000000000000000000000000,
|
|
|
|
#GOGOSTART
|
|
30004003,
|
|
3000101011102000,
|
|
1212,
|
|
1110,
|
|
300000000000300000000000300000000000300000000000,
|
|
700000000000000000000000000800000000000000000000,
|
|
500000000000000000000800000000000000300000000000,
|
|
300000000000000000000000300000000000000000000000,
|
|
000000000000600000000000000000000000000000000800,
|
|
|
|
#GOGOEND
|
|
|
|
|
|
#END
|
|
|
|
|
|
COURSE:Easy
|
|
LEVEL:3
|
|
BALLOON:4,10
|
|
SCOREINIT:1200
|
|
SCOREDIFF:510
|
|
|
|
|
|
#START
|
|
|
|
|
|
1000000010001000,
|
|
1000000010000000,
|
|
1000000010001000,
|
|
1000000000000000,
|
|
1000000010001000,
|
|
1000000100000000,
|
|
3000000030000000,
|
|
5000000000000000,
|
|
8000000000000000,
|
|
1000000010001000,
|
|
1000000020000000,
|
|
1000000010001000,
|
|
1000000020000000,
|
|
1000100010001000,
|
|
1000000000000000,
|
|
1000000000000000,
|
|
1000000010001000,
|
|
1000000020000000,
|
|
1000000010001000,
|
|
1000000000000000,
|
|
1000000010001000,
|
|
1000000020000000,
|
|
1000000010001000,
|
|
5000000000000000,
|
|
8000000000000000,
|
|
1000000010001000,
|
|
2000000020000000,
|
|
1000000010001000,
|
|
2000000000000000,
|
|
3000000000000000,
|
|
3000000000000000,
|
|
1000100020000000,
|
|
0050000000000000,
|
|
8000000000000000,
|
|
00000000
|
|
|
|
#GOGOSTART
|
|
30000000,
|
|
3000000010000000,
|
|
1000000000000000,
|
|
1000100020000000,
|
|
1000000030003000,
|
|
7080000000000000,
|
|
5000000000008000,
|
|
3000300000000000,
|
|
0000700000000000,
|
|
8000000000000000,
|
|
0000000000000000,
|
|
|
|
|
|
#END
|
|
|