Files
ESE/01 Pop/WXY/WXY.tja
T
2023-07-06 03:20:33 -04:00

204 lines
2.5 KiB
Plaintext

TITLE:W/X/Y
TITLEJA:W/X/Y
SUBTITLE:--Tani Yuuki
SUBTITLEJA:
BPM:71
WAVE:WXY.ogg
OFFSET:-2.118
DEMOSTART:56.838
COURSE:Oni
LEVEL:7
BALLOON:26,22,25
SCOREINIT:930
SCOREDIFF:258
#START
100101201001101101202001,
100101201001102201111101,
200101201001101101201001,
100101201001102201122201,
100000200101102000201101,
100000200101100000200001,
100000200102202001201101,
100200201100200001200201,
100000201101102000201101,
100001201100200001200001,
100000200102202001102201,
100001201100200001200200,
111101201000111101201000,
101010100010200010200000500000000000000008000000,
200111201101200111201101,
27000000,
#MEASURE 2/4
800001102202,
#MEASURE 4/4
#GOGOSTART
100111100111101101201112,
100111200111201101101122,
100112200112201101201200,
700000000000000801102222,
100111100111101101201112,
100111200111201101101122,
100112200112201100200100,
7008,
#GOGOEND
100101201001101101202001,
100101201001102201111101,
200101201001101101201001,
100101201001102201122201,
#BARLINEOFF
,
#END
COURSE:Hard
LEVEL:4
BALLOON:23,17,21
SCOREINIT:1200
SCOREDIFF:415
#START
100101100000100100200000,
100101100000200200200000,
100101100000100100200000,
100101100000200200200000,
100000200101100000200000,
100000100101100000200000,
100000200101100000200000,
100000101100100000200000,
100000200101100100200000,
100000100101100100200000,
100000200101100100200000,
100000101100200000200200,
100101100000100101100000,
100000100010100000000000500000000000000008000000,
200000101101200000101101,
27000000,
#MEASURE 2/4
8,
#MEASURE 4/4
#GOGOSTART
300100200001100100200100,
100100200001100100200200,
100100200001100100200100,
70000820,
300100200001100100200100,
100100200001100100200200,
100100200001100100200100,
7008,
#GOGOEND
100101100000100100200000,
100101100000200200200000,
100101100000100100200000,
100101100000200200200200,
#BARLINEOFF
,
#END
COURSE:Normal
LEVEL:3
BALLOON:17,12,16
SCOREINIT:1310
SCOREDIFF:645
#START
11101010,
11102020,
11101010,
11102020,
1110,
1120,
1110,
1120,
1112,
10111020,
1221,
10111020,
11102220,
11101010,
20111011,
17000000,
#MEASURE 2/4
8,
#MEASURE 4/4
#GOGOSTART
30101120,
10101120,
10101110,
70000800,
30101120,
10101120,
10101110,
7008,
#GOGOEND
11101010,
11102020,
11101010,
11102022,
#BARLINEOFF
,
#END
COURSE:Easy
LEVEL:3
BALLOON:13,9,9
SCOREINIT:1260
SCOREDIFF:900
#START
1101,
1101,
1101,
1101,
11,
12,
11,
12,
1110,
1120,
1110,
1120,
11101110,
11101000,
20222022,
27000000,
#MEASURE 2/4
8,
#MEASURE 4/4
#GOGOSTART
3110,
1110,
1111,
70000800,
3112,
1112,
1111,
70000800,
#GOGOEND
1101,
1101,
1101,
1101,
#BARLINEOFF
,
#END