Files
ESE/01 Pop/Wan Ou/Wan Ou.tja
T

457 lines
12 KiB
Plaintext

//TJADB Project
TITLE:Wan Ou
TITLEZH:玩偶
SUBTITLE:--Wang Leehom
BPM:134.59
WAVE:Wan Ou.ogg
OFFSET:-2.106
DEMOSTART:44.328
COURSE:Oni
LEVEL:4
SCOREINIT:850
SCOREDIFF:200
#START
100000000000200000000000000000100000000100000000,
#BPMCHANGE 135.23
#SCROLL 0.99
100000000000200000000000000000100000000100000000,
#BPMCHANGE 135.01
100000000000200000000000000000100000000100000000,
#BPMCHANGE 135.18
500000000000000000000008000000000000200200100000,
100000000100200000000000000000100000100100000000,
#BPMCHANGE 134.82
#SCROLL 1
100000000100200000000000000000100000100100000000,
#BPMCHANGE 134.5
100000000100200000000000000000100000100100000000,
#BPMCHANGE 135.5
#SCROLL 0.99
500000000000000000000008000000000000000000000000,
#BPMCHANGE 135
#SCROLL 1
100000100000200000100000100000100000200000000000,
100000100000200000100000100000000000200000000000,
100000100000200000100000100000100000200000000000,
100000000100100000100000100000000000000000000000,
100000100000200000100000100000100000200000000000,
100000100000200000100000200000000000000000000000,
100000000100200000100000100000100000200000000000,
100000000100200000100000200000000000300000000000,
100000000100200000000000100000100000200000000000,
100000000100200000000000100000200000000000200000,
100000000100200000000000100000100000200000000000,
500000000000000000000008000000000000000000000000,
100000000100200000000000100000100000200000000000,
100000000000200000000000100000200000000000200000,
100000000100200000000000100000100000200000000000,
#BPMCHANGE 134.2
500000000000000000000008000000000000000000000000,
#GOGOSTART
#BPMCHANGE 135.81
#SCROLL 0.99
100000000100200000100000100000000100200000100000,
#BPMCHANGE 135
#SCROLL 1
100000000100200000100000100000000000200200200000,
100000000100200000100000100000000100200000100000,
100100100000200000100000100000000000400000000000,
200000000200200000100000200000000200200000100000,
200000000200200000100000200000000000000000000000,
#GOGOEND
#BPMCHANGE 136.13
#SCROLL 0.99
300000000000000000000000000000000000000000000000,
#BPMCHANGE 134.55
#SCROLL 1
300000000000000000000000000000000000000000000000,
#BPMCHANGE 135.07
#SCROLL 0.99
300000000000000000000000300000000000000000000000,
#BPMCHANGE 135.23
300000003000000030000000300000000000300000000000,
#BPMCHANGE 133.69
#SCROLL 1
100000000000200000000000200000100000200000000000,
#BPMCHANGE 135
100000000000200000000000200000100000200000000000,
100000000000200000000000200000100000200000000000,
100000000000200000000000300000000000000000000000,
100000000000200000000000200000100000200100000000,
100000000000200000000000200000100000200100000000,
300000000000000000000000000000000000000000000000,
#BPMCHANGE 135.8
#SCROLL 0.99
000000000000000000000000000000000000200000000000,
#BPMCHANGE 134.59
#SCROLL 1
100000000100200000000000100000000100200000000000,
#BPMCHANGE 135
100000000100200000000000100000000000200000000000,
100000000100200000000000100000000100200000000000,
100000100000200000100200000000000000200000000000,
100000000100200000000000100000000100200000000000,
100000000100200000000000100000000000200000000000,
100000000100200000000000100000100000200100100000,
100100100000100000100000100100100000200200200000,
#GOGOSTART
100000000100200000100000100000100000200000000000,
100000000100200000100000100100100000200000000000,
100000000100200000100000100000100000200000000000,
100000200000100000200000100000000000400000000000,
200000000200200000000000200000000200200000000000,
200000000200200000000000200000000000000000000000,
#GOGOEND
#BPMCHANGE 134.46
300000000000000000000000100000000000000000000000,
#BPMCHANGE 119.73
100000000100100000100000100000000000000000000000,
#END
COURSE:Hard
LEVEL:5
SCOREINIT:840
SCOREDIFF:200
#START
1000200000100100,
#BPMCHANGE 135.23
#SCROLL 0.99
1000200000100100,
#BPMCHANGE 135.01
1000200000100100,
#BPMCHANGE 135.18
500000000000000000000000000000000008000000000000,
1001200000100100,
#BPMCHANGE 134.82
#SCROLL 1
1001200000100100,
#BPMCHANGE 134.5
1001200000100100,
#BPMCHANGE 135.5
#SCROLL 0.99
500000000000000000000000000000000008000000000000,
#BPMCHANGE 135
#SCROLL 1
11121120,
11211000,
11211110,
3330,
11121120,
11212000,
1001200010101000,
3330,
1001200010102000,
1001200010000000,
1001200010102000,
500000000000000000000008000000000000000000000000,
1001200010102000,
1210,
1001200010102000,
#BPMCHANGE 134.2
500000000000000000000008000000000000000000000000,
#GOGOSTART
#BPMCHANGE 135.81
#SCROLL 0.99
11201020,
#BPMCHANGE 135
#SCROLL 1
11201000,
1110100011101000,
11201040,
22202220,
22222000,
#GOGOEND
#BPMCHANGE 136.13
#SCROLL 0.99
3,
#BPMCHANGE 134.55
#SCROLL 1
3,
#BPMCHANGE 135.07
#SCROLL 0.99
33,
#BPMCHANGE 135.23
303030300300,
#BPMCHANGE 133.69
#SCROLL 1
10202120,
#BPMCHANGE 135
10202120,
10202120,
1230,
10202120,
10202120,
3,
#BPMCHANGE 135.8
#SCROLL 0.99
0001,
#BPMCHANGE 134.59
#SCROLL 1
1001200010012000,
#BPMCHANGE 135
1001200010002000,
1001200010012000,
1010201200002000,
1001200010012000,
1001200010002000,
1001200010012000,
3,
#GOGOSTART
11211120,
1010201011102000,
11211120,
1110111010004000,
22202220,
2020222020000000,
#GOGOEND
#BPMCHANGE 134.46
31,
#BPMCHANGE 119.73
1001101010000000,
#END
COURSE:Normal
LEVEL:4
#START
100000000000000000000000000000100000000100000000,
#BPMCHANGE 135.23
#SCROLL 0.99
100000000000000000000000000000100000000100000000,
#BPMCHANGE 135.01
100000000000000000000000000000100000000100000000,
#BPMCHANGE 135.18
300000000000000000000000000000000000000000000000,
100000000000200000000000000000100000000100000000,
#BPMCHANGE 134.82
#SCROLL 1
100000000000200000000000000000100000000100000000,
#BPMCHANGE 134.5
100000000000200000000000000000100000000100000000,
#BPMCHANGE 135.5
#SCROLL 0.99
300000000000000000000000000000000000000000000000,
#BPMCHANGE 135
#SCROLL 1
100000000000200000000000100000000000000000000000,
100000000000100000000000100000000000000000000000,
100000000000200000000000100000000000200000000000,
300000000000300000000000300000000000000000000000,
100000000000200000000000100000000000000000000000,
100000000000100000000000100000000000000000000000,
100000000000200000000000100000000000200000000000,
300000000000300000000000300000000000000000000000,
100000000000200000000000100000000000200000000000,
100000000000200000000000100000000000000000000000,
100000000000200000000000100000000000200000000000,
500000000000000000000080000000000000000000000000,
100000000000200000000000100000000000200000000000,
100000000000200000000000100000000000000000000000,
100000000000200000000000100000000000200000000000,
#BPMCHANGE 134.2
500000000000000000000080000000000000000000000000,
#GOGOSTART
#BPMCHANGE 135.81
#SCROLL 0.99
100000000000100000000000100000000000100000000000,
#BPMCHANGE 135
#SCROLL 1
100000000000100000000000100000000000000000000000,
100000000000100000000000100000000000100000000000,
200000000000000000000000200000000000000000000000,
100000000000100000000000100000000000100000000000,
500000000000000000000000000080000000000000000000,
#GOGOEND
#BPMCHANGE 136.13
#SCROLL 0.99
300000000000000000000000100000000000000000000000,
#BPMCHANGE 134.55
#SCROLL 1
300000000000000000000000100000000000000000000000,
#BPMCHANGE 135.07
#SCROLL 0.99
300000000000000000000000300000000000000000000000,
#BPMCHANGE 135.23
100000000000000000000000000000000000000000000000,
#BPMCHANGE 133.69
#SCROLL 1
100000000000200000000000000000100000200000000000,
#BPMCHANGE 135
100000000000200000000000000000100000200000000000,
100000000000200000000000000000100000200000000000,
100000000000200000000000300000000000000000000000,
100000000000200000000000000000100000200000000000,
100000000000200000000000000000100000200000000000,
300000000000000000000000000000000000000000000000,
#BPMCHANGE 135.8
#SCROLL 0.99
000000000000000000000000000000000000000000000000,
#BPMCHANGE 134.59
#SCROLL 1
100000000000200000000000100000000000200000000000,
#BPMCHANGE 135
100000000000200000000000100000000000000000000000,
100000000000200000000000100000000000200000000000,
500000000000000000000080000000000000000000000000,
100000000000200000000000100000000000200000000000,
100000000000200000000000100000000000000000000000,
100000000000200000000000100000000000200000000000,
300000000000000000000000000000000000000000000000,
#GOGOSTART
100000000000100000000000100000000000100000000000,
100000000000100000000000100000000000000000000000,
100000000000100000000000100000000000100000000000,
200000000000000000000000200000000000000000000000,
300000000000300000000000300000000000300000000000,
500000000000000000000000000080000000000000000000,
#GOGOEND
#BPMCHANGE 134.46
300000000000000000000000100000000000000000000000,
#BPMCHANGE 119.73
100000000000100000000000100000000000000000000000,
#END
COURSE:Easy
LEVEL:3
#START
100000000000000000000000000000100000000000000000,
#BPMCHANGE 135.23
#SCROLL 0.99
100000000000000000000000000000100000000000000000,
#BPMCHANGE 135.01
100000000000000000000000000000100000000000000000,
#BPMCHANGE 135.18
300000000000000000000000000000000000000000000000,
100000000000000000000000000000100000000000000000,
#BPMCHANGE 134.82
#SCROLL 1
100000000000000000000000000000100000000000000000,
#BPMCHANGE 134.5
100000000000000000000000000000100000000000000000,
#BPMCHANGE 135.5
#SCROLL 0.99
300000000000000000000000000000000000000000000000,
#BPMCHANGE 135
#SCROLL 1
100000000000000000000000100000000000000000000000,
100000000000100000000000100000000000000000000000,
100000000000000000000000100000000000000000000000,
300000000000300000000000300000000000000000000000,
100000000000000000000000100000000000000000000000,
100000000000100000000000100000000000000000000000,
100000000000000000000000100000000000000000000000,
300000000000300000000000300000000000000000000000,
100000000000000000000000100000000000000000000000,
100000000000000000000000100000000000000000000000,
100000000000000000000000100000000000000000000000,
500000000000000000000080000000000000000000000000,
100000000000000000000000100000000000000000000000,
100000000000000000000000100000000000000000000000,
100000000000000000000000100000000000000000000000,
#BPMCHANGE 134.2
500000000000000000000080000000000000000000000000,
#GOGOSTART
#BPMCHANGE 135.81
#SCROLL 0.99
100000000000100000000000100000000000000000000000,
#BPMCHANGE 135
#SCROLL 1
100000000000100000000000100000000000000000000000,
100000000000100000000000100000000000000000000000,
200000000000000000000000200000000000000000000000,
100000000000100000000000100000000000100000000000,
500000000000000000000000000080000000000000000000,
#GOGOEND
#BPMCHANGE 136.13
#SCROLL 0.99
300000000000000000000000000000000000000000000000,
#BPMCHANGE 134.55
#SCROLL 1
300000000000000000000000000000000000000000000000,
#BPMCHANGE 135.07
#SCROLL 0.99
300000000000000000000000300000000000000000000000,
#BPMCHANGE 135.23
100000000000000000000000100000000000000000000000,
#BPMCHANGE 133.69
#SCROLL 1
100000000000200000000000000000000000000000000000,
#BPMCHANGE 135
100000000000200000000000000000000000000000000000,
100000000000200000000000000000000000000000000000,
100000000000200000000000300000000000000000000000,
100000000000200000000000000000000000000000000000,
100000000000200000000000000000000000000000000000,
300000000000000000000000000000000000000000000000,
#BPMCHANGE 135.8
#SCROLL 0.99
000000000000000000000000000000000000000000000000,
#BPMCHANGE 134.59
#SCROLL 1
100000000000000000000000200000000000000000000000,
#BPMCHANGE 135
100000000000000000000000200000000000000000000000,
100000000000000000000000200000000000000000000000,
100000000000000000000000000000000000000000000000,
100000000000000000000000200000000000000000000000,
100000000000000000000000200000000000000000000000,
100000000000000000000000200000000000000000000000,
300000000000000000000000000000000000000000000000,
#GOGOSTART
100000000000100000000000100000000000000000000000,
100000000000100000000000100000000000000000000000,
100000000000100000000000100000000000000000000000,
500000000000000000000000000080000000000000000000,
300000000000300000000000300000000000000000000000,
500000000000000000000000000080000000000000000000,
#GOGOEND
#BPMCHANGE 134.46
300000000000000000000000100000000000000000000000,
#BPMCHANGE 119.73
100000000000000000000000100000000000000000000000,
#END