Files
ESE/01 Pop/We Will Rock You/We Will Rock You.tja
T
2023-06-15 19:15:39 -05:00

613 lines
9.4 KiB
Plaintext

//TJADB Project
TITLE:We Will Rock You
TITLEJA:We Will Rock You
SUBTITLE:--Brian May
BPM:162.64
WAVE:We Will Rock You.ogg
OFFSET:-0.506
DEMOSTART:24.128
COURSE:Edit
LEVEL:5
STYLE:Double
BALLOON:9,9,9,9
SCOREINIT:1210
SCOREDIFF:383
#START P1
#BARLINEOFF
,
,
#BARLINEON
,
#BPMCHANGE 163.55
,
#BPMCHANGE 161.74
1120,
#BPMCHANGE 162.64
1120,
1120,
1120,
1000111010001000,
10101110,
1000111010001000,
1000100011101000,
11011000,
3330,
1110100011101000,
#BPMCHANGE 161.0004
1000101110000000,
#BPMCHANGE 163.2529
500000000000000000000000000000000008000000000000,
500000000000000000000000000000000008000000000000,
3300,
#BPMCHANGE 161.8944
,
#BPMCHANGE 162.851
1120,
1120,
3300,
#BPMCHANGE 162.2915
,
#BPMCHANGE 161.8154
1000100020001110,
10101011,
#BPMCHANGE 163.1454
1000100020001110,
1000100011101000,
1120,
3330,
1000111010001110,
1000101110000000,
#BPMCHANGE 161.8944
1120,
1120,
3300,
,
#BPMCHANGE 162.3315
500000000000000000000000000000000008000000000000,
500000000000000000000000000000000008000000000000,
#BPMCHANGE 162.6109
3300,
#BPMCHANGE 162.5312
,
#BPMCHANGE 162.6907
1000111020001110,
1000100020001110,
1000111020001110,
1000100022201000,
11011000,
3330,
1000111020002220,
1120,
#GOGOSTART
#BPMCHANGE 161.8944
1120,
3340,
#BPMCHANGE 163.2529
3000300011101110,
1120,
#BPMCHANGE 163.4143
500000000000000000000000000000000008000000000000,
#BPMCHANGE 161.4991
500000000000000000000000000000000008000000000000,
#BPMCHANGE 163.738
3000300022202220,
#BPMCHANGE 160.8708
1120,
78,
#BPMCHANGE 162.771
78,
#BPMCHANGE 165.0451
3000300011101110,
#BPMCHANGE 162.2121
1110111020000000,
78,
78,
3300,
#END
#START P2
#BARLINEOFF
,
,
#BARLINEON
,
#BPMCHANGE 163.55
,
#BPMCHANGE 161.74
1120,
#BPMCHANGE 162.64
1120,
1120,
1120,
1000100020001110,
10101011,
1000100020001110,
1000100011101000,
1120,
3330,
1000111010001110,
#BPMCHANGE 161.0004
1000101110000000,
#BPMCHANGE 163.2529
1120,
1120,
3300,
#BPMCHANGE 161.8944
,
#BPMCHANGE 162.851
500000000000000000000000000000000008000000000000,
500000000000000000000000000000000008000000000000,
3300,
#BPMCHANGE 162.2915
,
#BPMCHANGE 161.8154
1000111010001000,
10101110,
#BPMCHANGE 163.1454
1000111010001000,
1000100011101000,
11011000,
3330,
1110100011101000,
1000101110000000,
#BPMCHANGE 161.8944
500000000000000000000000000000000008000000000000,
500000000000000000000000000000000008000000000000,
3300,
,
#BPMCHANGE 162.3315
1120,
1120,
#BPMCHANGE 162.6109
3300,
#BPMCHANGE 162.5312
,
#BPMCHANGE 162.6907
1000100020001110,
1000111020001110,
1000100020001110,
1000111020001000,
11011000,
3330,
1110100022202000,
1120,
#GOGOSTART
#BPMCHANGE 161.8944
500000000000000000000000000000000008000000000000,
500000000000000000000000000000000008000000000000,
#BPMCHANGE 163.2529
3000300011101110,
1120,
#BPMCHANGE 163.4143
1120,
#BPMCHANGE 161.4991
3340,
#BPMCHANGE 163.738
3000300022202220,
#BPMCHANGE 160.8708
1120,
78,
#BPMCHANGE 162.771
78,
#BPMCHANGE 165.0451
3000300011101110,
#BPMCHANGE 162.2121
1110111020000000,
78,
78,
3300,
#END
COURSE:Oni
LEVEL:5
BALLOON:9,9,9,9
SCOREINIT:1340
SCOREDIFF:333
#START
#BARLINEOFF
,
,
#BARLINEON
,
#BPMCHANGE 163.55
,
#BPMCHANGE 161.74
1120,
#BPMCHANGE 162.64
1120,
1120,
1120,
1000111010001110,
10101111,
1000111010001110,
1000100011101000,
11011000,
3330,
1110111011101110,
#BPMCHANGE 161.0004
1000101110000000,
#BPMCHANGE 163.2529
500000000000000000000000000000000008000000000000,
500000000000000000000000000000000008000000000000,
3300,
#BPMCHANGE 161.8944
,
#BPMCHANGE 162.851
500000000000000000000000000000000008000000000000,
500000000000000000000000000000000008000000000000,
3300,
#BPMCHANGE 162.2915
,
#BPMCHANGE 161.8154
1000111010002220,
10101122,
#BPMCHANGE 163.1454
1000111010002220,
1000100011102000,
11011000,
3330,
1110111011102220,
1000101110000000,
#BPMCHANGE 161.8944
500000000000000000000000000000000008000000000000,
500000000000000000000000000000000008000000000000,
3300,
,
#BPMCHANGE 162.3315
500000000000000000000000000000000008000000000000,
500000000000000000000000000000000008000000000000,
#BPMCHANGE 162.6109
3300,
#BPMCHANGE 162.5312
,
#BPMCHANGE 162.6907
1000111020001110,
1110111022201110,
1000111020001110,
1000100022201000,
11011000,
3330,
1110111022201110,
1120,//46
#GOGOSTART
#BPMCHANGE 161.8944
500000000000000000000000000000000008000000000000,
500000000000000000000000000000000008000000000000,
#BPMCHANGE 163.2529
3000300011101110,
1120,
#BPMCHANGE 163.4143
500000000000000000000000000000000008000000000000,
#BPMCHANGE 161.4991
500000000000000000000000000000000008000000000000,
#BPMCHANGE 163.738
3000300022202220,
#BPMCHANGE 160.8708
1120,
78,
#BPMCHANGE 162.771
78,
#BPMCHANGE 165.0451
3000300011101110,
#BPMCHANGE 162.2121
1110111020000000,
78,
78,
3300,
#END
COURSE:Hard
LEVEL:1
BALLOON:7,7,7,7
#START
,
#BPMCHANGE 163.5506
,
#BPMCHANGE 161.736
1120,
#BPMCHANGE 162.6373
1120,
1120,
1120,
11102010,
11102000,
11102010,
11102000,
12112000,
3340,
11102010,
#BPMCHANGE 161.0004
11202000,
#BPMCHANGE 163.2529
500000000000000000000000000000000008000000000000,
500000000000000000000000000000000008000000000000,
3300,
#BPMCHANGE 161.8944
,
#BPMCHANGE 162.851
500000000000000000000000000000000008000000000000,
500000000000000000000000000000000008000000000000,
3300,
#BPMCHANGE 162.2915
,
#BPMCHANGE 161.8154
11102010,
11102020,
#BPMCHANGE 163.1454
11102010,
11102020,
12112000,
3340,
11102010,
11202000,
#BPMCHANGE 161.8944
500000000000000000000000000000000008000000000000,
500000000000000000000000000000000008000000000000,
3300,
,
#BPMCHANGE 162.3315
500000000000000000000000000000000008000000000000,
500000000000000000000000000000000008000000000000,
#BPMCHANGE 162.6109
3300,
#BPMCHANGE 162.5312
,
#BPMCHANGE 162.6907
11112010,
11112020,
11112010,
11112020,
12112000,
3341,
11112010,
11204000,//46
#GOGOSTART
#BPMCHANGE 161.8944
500000000000000000000000000000000008000000000000,
500000000000000000000000000000000008000000000000,
#BPMCHANGE 163.2529
3300,
,
#BPMCHANGE 163.4143
500000000000000000000000000000000008000000000000,
#BPMCHANGE 161.4991
500000000000000000000000000000000008000000000000,
#BPMCHANGE 163.738
3300,
#BPMCHANGE 160.8708
,
78,
#BPMCHANGE 162.771
78,
#BPMCHANGE 165.0451
3300,
#BPMCHANGE 162.2121
,
78,
78,
3300,//61
#GOGOEND
#BPMCHANGE 162.0002
,
#END
COURSE:Normal
LEVEL:1
BALLOON:6,6,6,6
#START
,
#BPMCHANGE 163.5506
,
#BPMCHANGE 161.736
1120,
#BPMCHANGE 162.6373
1120,
1120,
1120,
1110,
1120,
1110,
1120,
1110,
1120,
1122,
#BPMCHANGE 161.0004
1120,
#BPMCHANGE 163.2529
500000000000000000000008000000000000000000000000,
500000000000000000000008000000000000000000000000,
3300,
#BPMCHANGE 161.8944
,
#BPMCHANGE 162.851
500000000000000000000008000000000000000000000000,
500000000000000000000008000000000000000000000000,
3300,
#BPMCHANGE 162.2915
,
#BPMCHANGE 161.8154
1120,
1220,
#BPMCHANGE 163.1454
1120,
1220,
1120,
1220,
1122,
1120,
#BPMCHANGE 161.8944
500000000000000000000008000000000000000000000000,
500000000000000000000008000000000000000000000000,
3300,
,
#BPMCHANGE 162.3315
500000000000000000000008000000000000000000000000,
500000000000000000000008000000000000000000000000,
#BPMCHANGE 162.6109
3300,
#BPMCHANGE 162.5312
,
#BPMCHANGE 162.6907
1120,
11102000,
1120,
11102000,
1120,
11102000,
1122,
1120,//46
#GOGOSTART
#BPMCHANGE 161.8944
500000000000000000000008000000000000000000000000,
500000000000000000000008000000000000000000000000,
#BPMCHANGE 163.2529
3300,
,
#BPMCHANGE 163.4143
500000000000000000000008000000000000000000000000,
#BPMCHANGE 161.4991
500000000000000000000008000000000000000000000000,
#BPMCHANGE 163.738
3300,
#BPMCHANGE 160.8708
,
78,
#BPMCHANGE 162.771
78,
#BPMCHANGE 165.0451
3300,
#BPMCHANGE 162.2121
,
78,
78,
3300,//61
#GOGOEND
#BPMCHANGE 162.0002
,
#END
COURSE:Easy
LEVEL:2
#START
,
#BPMCHANGE 163.5506
,
#BPMCHANGE 161.736
1120,
#BPMCHANGE 162.6373
1120,
1120,
1120,
11,
1110,
11,
1110,
12,
12,
11,
#BPMCHANGE 161.0004
1120,
#BPMCHANGE 163.2529
500000000000000000000008000000000000000000000000,
500000000000000000000008000000000000000000000000,
3300,
#BPMCHANGE 161.8944
,
#BPMCHANGE 162.851
500000000000000000000008000000000000000000000000,
500000000000000000000008000000000000000000000000,
3300,
#BPMCHANGE 162.2915
,
#BPMCHANGE 161.8154
11,
1110,
#BPMCHANGE 163.1454
12,
1110,
12,
1120,
12,
1120,
#BPMCHANGE 161.8944
500000000000000000000008000000000000000000000000,
500000000000000000000008000000000000000000000000,
3300,
,
#BPMCHANGE 162.3315
500000000000000000000008000000000000000000000000,
500000000000000000000008000000000000000000000000,
#BPMCHANGE 162.6109
3300,
#BPMCHANGE 162.5312
,
#BPMCHANGE 162.6907
12,
1120,
12,
1120,
14,
1120,
1121,
1120,//46
#GOGOSTART
#BPMCHANGE 161.8944
500000000000000000000008000000000000000000000000,
500000000000000000000008000000000000000000000000,
#BPMCHANGE 163.2529
3300,
,
#BPMCHANGE 163.4143
500000000000000000000008000000000000000000000000,
#BPMCHANGE 161.4991
500000000000000000000008000000000000000000000000,
#BPMCHANGE 163.738
3300,
#BPMCHANGE 160.8708
,
78,
#BPMCHANGE 162.771
78,
#BPMCHANGE 165.0451
3300,
#BPMCHANGE 162.2121
,
78,
78,
3300,//61
#GOGOEND
#BPMCHANGE 162.0002
,
#END