531 lines
12 KiB
Plaintext
531 lines
12 KiB
Plaintext
//TJADB Project
|
|
TITLE:Wo Jiushi Zheyang
|
|
TITLEZH:我就是這樣
|
|
SUBTITLE:--Liu Li Yang feat. Tank
|
|
BPM:94.28
|
|
WAVE:Wo Jiushi Zheyang.ogg
|
|
OFFSET:-5.179
|
|
DEMOSTART:65.781
|
|
|
|
COURSE:Oni
|
|
LEVEL:6
|
|
SCOREINIT:810
|
|
SCOREDIFF:220
|
|
|
|
|
|
#START
|
|
|
|
|
|
100000000000000000100000100000000000200000000000,
|
|
#BPMCHANGE 95.73
|
|
#SCROLL 0.99
|
|
100000100000100000000000100000000000200000000000,
|
|
#BPMCHANGE 94.37
|
|
#SCROLL 1
|
|
100000000000000000100000100000000000200000000000,
|
|
#BPMCHANGE 95.04
|
|
#SCROLL 0.99
|
|
100000100000100000000000100000000000200000000000,
|
|
#BPMCHANGE 95.37
|
|
300000000000000000100000100000000000200000000000,
|
|
#BPMCHANGE 94.83
|
|
#SCROLL 1
|
|
100000100000100000000000100000000000200000000000,
|
|
#BPMCHANGE 95.07
|
|
#SCROLL 0.99
|
|
100000000000000000100000100000000000200000000000,
|
|
#BPMCHANGE 94.42
|
|
#SCROLL 1
|
|
300000000000300000000000300000000000000000000000,
|
|
#BPMCHANGE 95.98
|
|
#SCROLL 0.98
|
|
100000100000200000100200100200100000200000000000,
|
|
#BPMCHANGE 94.07
|
|
#SCROLL 1
|
|
100000100000200000100200100200100000200000200200,
|
|
#BPMCHANGE 95.59
|
|
#SCROLL 0.99
|
|
100000100000200000100200100200100000200000000000,
|
|
#BPMCHANGE 95.1
|
|
100000100000200000100200100200100000200000200200,
|
|
#BPMCHANGE 95.21
|
|
100000000000200000100000000000100000200000000000,
|
|
#BPMCHANGE 94.99
|
|
#SCROLL 1
|
|
100000000000200000100000000000100000200000000000,
|
|
#BPMCHANGE 95.21
|
|
#SCROLL 0.99
|
|
100000000000200200200000200000100000200000000000,
|
|
#BPMCHANGE 94.72
|
|
#SCROLL 1
|
|
200200200000100000200000200200100000200000000000,
|
|
#BPMCHANGE 95.07
|
|
#SCROLL 0.99
|
|
100000000000200000100000000000100000200000000000,
|
|
#BPMCHANGE 94.74
|
|
#SCROLL 1
|
|
100000000000200000100000000000100000200000000000,
|
|
#BPMCHANGE 95.21
|
|
#SCROLL 0.99
|
|
100000000000200200200000200000100000200000000000,
|
|
#BPMCHANGE 94.39
|
|
#SCROLL 1
|
|
200200200000200000100200200000100000400000000000,
|
|
#BPMCHANGE 95.93
|
|
#SCROLL 0.99
|
|
100000100000200000100000100200100000200000000000,
|
|
#BPMCHANGE 94.18
|
|
#SCROLL 1
|
|
100000100000200000100000100200100000200200100000,
|
|
#BPMCHANGE 95.58
|
|
#SCROLL 0.99
|
|
100000100000200000100000100200100000200000000000,
|
|
#BPMCHANGE 95.44
|
|
100000100000100000100000100100100000100100100000,
|
|
|
|
#GOGOSTART
|
|
#BPMCHANGE 94.07
|
|
#SCROLL 1
|
|
100000200000100200100000200000100000100200100000,
|
|
#BPMCHANGE 95.32
|
|
#SCROLL 0.99
|
|
100000200000100200100000200000000000100200100000,
|
|
#BPMCHANGE 94.61
|
|
#SCROLL 1
|
|
100000200000100200100000100000000000200000000000,
|
|
#BPMCHANGE 95.54
|
|
#SCROLL 0.99
|
|
100000200000100200100000200200100000200200100000,
|
|
#BPMCHANGE 95.05
|
|
100000200000100200100000200000100000100200100000,
|
|
#BPMCHANGE 95
|
|
#SCROLL 1
|
|
100000200000100200100000100000000000200200100000,
|
|
#BPMCHANGE 95.41
|
|
#SCROLL 0.99
|
|
100000200000100200100000100000000000200000000000,
|
|
#BPMCHANGE 94.12
|
|
#SCROLL 1
|
|
100000100000200200100000200200100000200200100000,
|
|
#BPMCHANGE 95.93
|
|
#SCROLL 0.99
|
|
100000200000100200100000200000100000100200100000,
|
|
#BPMCHANGE 94.56
|
|
#SCROLL 1
|
|
100000200000100200100000200200100000200000000000,
|
|
#BPMCHANGE 95.09
|
|
#SCROLL 0.99
|
|
100000200000100200100000100000000000200200100000,
|
|
#BPMCHANGE 95.43
|
|
100000200000100200100000200200100000200200100000,
|
|
#BPMCHANGE 94.77
|
|
#SCROLL 1
|
|
100000200000100200100000200000100000100200100000,
|
|
#BPMCHANGE 95.1
|
|
#SCROLL 0.99
|
|
100000200000200200100000200200100000200000000000,
|
|
100000200000100200100000100000000000200000000000,
|
|
#BPMCHANGE 95.81
|
|
100000100000100200100000100200100000100200100000,
|
|
#BPMCHANGE 93.73
|
|
#SCROLL 1.01
|
|
100000200100000200100000400000100100000000000000,
|
|
|
|
#GOGOEND
|
|
|
|
|
|
#END
|
|
|
|
|
|
COURSE:Hard
|
|
LEVEL:6
|
|
BALLOON:20
|
|
SCOREINIT:980
|
|
SCOREDIFF:240
|
|
|
|
|
|
#START
|
|
|
|
|
|
100000000000000000100000100000000000200000000000,
|
|
#BPMCHANGE 95.73
|
|
#SCROLL 0.99
|
|
100000000000000000100000100000000000200000000000,
|
|
#BPMCHANGE 94.37
|
|
#SCROLL 1
|
|
100000000000000000100000100000000000200000000000,
|
|
#BPMCHANGE 95.04
|
|
#SCROLL 0.99
|
|
100000000000000000100000100000000000200000000000,
|
|
#BPMCHANGE 95.37
|
|
300000000000000000100000100000000000200000000000,
|
|
#BPMCHANGE 94.83
|
|
#SCROLL 1
|
|
100000000000000000100000100000000000200000000000,
|
|
#BPMCHANGE 95.07
|
|
#SCROLL 0.99
|
|
100000000000000000100000100000000000200000000000,
|
|
#BPMCHANGE 94.42
|
|
#SCROLL 1
|
|
300000000000300000000000300000000000000000000000,
|
|
#BPMCHANGE 95.98
|
|
#SCROLL 0.98
|
|
100000100000200000000200200200200000200000000000,
|
|
#BPMCHANGE 94.07
|
|
#SCROLL 1
|
|
100000100000200000000100100100100000200000000000,
|
|
#BPMCHANGE 95.59
|
|
#SCROLL 0.99
|
|
100000100000200000000200200200200000200000000000,
|
|
#BPMCHANGE 95.1
|
|
100000100000200000000100100100100000200000000000,
|
|
#BPMCHANGE 95.21
|
|
100000000000200000100000000000100000200000000000,
|
|
#BPMCHANGE 94.99
|
|
#SCROLL 1
|
|
100000000000200000100000000000100000200000000000,
|
|
#BPMCHANGE 95.21
|
|
#SCROLL 0.99
|
|
100000000000200000200000200000100000200000000000,
|
|
#BPMCHANGE 94.72
|
|
#SCROLL 1
|
|
200000200000200000100000200000100000200000000000,
|
|
#BPMCHANGE 95.07
|
|
#SCROLL 0.99
|
|
100000000000200000100000000000100000200000000000,
|
|
#BPMCHANGE 94.74
|
|
#SCROLL 1
|
|
100000000000200000100000000000100000200000000000,
|
|
#BPMCHANGE 95.21
|
|
#SCROLL 0.99
|
|
100000000000200000200000200000100000200000000000,
|
|
#BPMCHANGE 94.39
|
|
#SCROLL 1
|
|
200000200000200000100000200000100000300000000000,
|
|
#BPMCHANGE 95.93
|
|
#SCROLL 0.99
|
|
100000000000200000100000100000100000200000000000,
|
|
#BPMCHANGE 94.18
|
|
#SCROLL 1
|
|
100000000000200000100000100000100000200000000000,
|
|
#BPMCHANGE 95.58
|
|
#SCROLL 0.99
|
|
100000000000200000100000100000100000200000000000,
|
|
#BPMCHANGE 95.44
|
|
500000000000000000000000000000800000000000000000,
|
|
|
|
#GOGOSTART
|
|
#BPMCHANGE 94.07
|
|
#SCROLL 1
|
|
100000100000100200100000100000000000200000000000,
|
|
#BPMCHANGE 95.32
|
|
#SCROLL 0.99
|
|
100000200000100200100000200000000000200000200000,
|
|
#BPMCHANGE 94.61
|
|
#SCROLL 1
|
|
100000100000100200100000100000000000200000000000,
|
|
#BPMCHANGE 95.54
|
|
#SCROLL 0.99
|
|
100000200000100200100000100100100000100100100000,
|
|
#BPMCHANGE 95.05
|
|
100000100000100200100000100000000000200000000000,
|
|
#BPMCHANGE 95
|
|
#SCROLL 1
|
|
100000200000100200100000200000000000200000200000,
|
|
#BPMCHANGE 95.41
|
|
#SCROLL 0.99
|
|
100000100000100200100000100000000000200000000000,
|
|
#BPMCHANGE 94.12
|
|
#SCROLL 1
|
|
100000200000100100100000100100100000100100100000,
|
|
#BPMCHANGE 95.93
|
|
#SCROLL 0.99
|
|
100000100000100200100000100000000000200000000000,
|
|
#BPMCHANGE 94.56
|
|
#SCROLL 1
|
|
100000200000100200100000100000000000200000000000,
|
|
#BPMCHANGE 95.09
|
|
#SCROLL 0.99
|
|
100000100000100200100000100000000000200000000000,
|
|
#BPMCHANGE 95.43
|
|
100000200000100200100000100000000000200000000000,
|
|
#BPMCHANGE 94.77
|
|
#SCROLL 1
|
|
100000100000100200100000100000000000200000000000,
|
|
#BPMCHANGE 95.1
|
|
#SCROLL 0.99
|
|
100000200000100200100000100000000000200000000000,
|
|
100000100000100200100000100000000000200000000000,
|
|
#BPMCHANGE 95.81
|
|
100000100000000000700000000000000000000000000000,
|
|
#BPMCHANGE 93.73
|
|
#SCROLL 1.01
|
|
00000800,
|
|
|
|
#GOGOEND
|
|
|
|
|
|
#END
|
|
|
|
|
|
COURSE:Normal
|
|
LEVEL:3
|
|
BALLOON:11,8,36
|
|
SCOREINIT:1230
|
|
SCOREDIFF:410
|
|
|
|
|
|
#START
|
|
|
|
|
|
200000000000000000000000200000000000000000000000,
|
|
#BPMCHANGE 95.73
|
|
#SCROLL 0.99
|
|
200000000000200000000000200000000000000000000000,
|
|
#BPMCHANGE 94.37
|
|
#SCROLL 1
|
|
200000000000000000000000200000000000000000000000,
|
|
#BPMCHANGE 95.04
|
|
#SCROLL 0.99
|
|
200000000000000000000000200000000000200000000000,
|
|
#BPMCHANGE 95.37
|
|
400000000000000000000000200000000000000000000000,
|
|
#BPMCHANGE 94.83
|
|
#SCROLL 1
|
|
200000000000200000000000200000000000000000000000,
|
|
#BPMCHANGE 95.07
|
|
#SCROLL 0.99
|
|
200000000000000000000000200000000000000000000000,
|
|
#BPMCHANGE 94.42
|
|
#SCROLL 1
|
|
300000000000300000000000300000000000000000000000,
|
|
#BPMCHANGE 95.98
|
|
#SCROLL 0.98
|
|
9,
|
|
#BPMCHANGE 94.07
|
|
#SCROLL 1
|
|
,
|
|
#BPMCHANGE 95.59
|
|
#SCROLL 0.99
|
|
,
|
|
#BPMCHANGE 95.1
|
|
8,
|
|
#BPMCHANGE 95.21
|
|
100000000000200000100000000000000000200000000000,
|
|
#BPMCHANGE 94.99
|
|
#SCROLL 1
|
|
100000000000200000100000000000000000200000000000,
|
|
#BPMCHANGE 95.21
|
|
#SCROLL 0.99
|
|
100000000000200000100000000000000000200000000000,
|
|
#BPMCHANGE 94.72
|
|
#SCROLL 1
|
|
100000000000200000100000000000000000200000000000,
|
|
#BPMCHANGE 95.07
|
|
#SCROLL 0.99
|
|
100000000000200000100000000000000000200000000000,
|
|
#BPMCHANGE 94.74
|
|
#SCROLL 1
|
|
100000000000200000100000000000000000200000000000,
|
|
#BPMCHANGE 95.21
|
|
#SCROLL 0.99
|
|
100000000000200000100000000000000000200000000000,
|
|
#BPMCHANGE 94.39
|
|
#SCROLL 1
|
|
100000000000200000100000000000000000200000000000,
|
|
#BPMCHANGE 95.93
|
|
#SCROLL 0.99
|
|
100000000000200000000000000000000000200000000000,
|
|
#BPMCHANGE 94.18
|
|
#SCROLL 1
|
|
100000000000200000000000000000000000200000000000,
|
|
#BPMCHANGE 95.58
|
|
#SCROLL 0.99
|
|
100000000000200000000000000000000000200000000000,
|
|
#BPMCHANGE 95.44
|
|
500000000000000000000000000000000080000000000000,
|
|
|
|
#GOGOSTART
|
|
#BPMCHANGE 94.07
|
|
#SCROLL 1
|
|
100000100000100000000000100000000000000000000000,
|
|
#BPMCHANGE 95.32
|
|
#SCROLL 0.99
|
|
100000100000100000000000200000000000000000000000,
|
|
#BPMCHANGE 94.61
|
|
#SCROLL 1
|
|
100000000000200000000000100000000000200000000000,
|
|
#BPMCHANGE 95.54
|
|
#SCROLL 0.99
|
|
100000000000200000000000100000100000100000000000,
|
|
#BPMCHANGE 95.05
|
|
100000100000100000000000100000000000000000000000,
|
|
#BPMCHANGE 95
|
|
#SCROLL 1
|
|
100000100000100000000000200000000000000000000000,
|
|
#BPMCHANGE 95.41
|
|
#SCROLL 0.99
|
|
100000000000200000000000100000000000200000000000,
|
|
#BPMCHANGE 94.12
|
|
#SCROLL 1
|
|
10010109,
|
|
#BPMCHANGE 95.93
|
|
#SCROLL 0.99
|
|
,
|
|
#BPMCHANGE 94.56
|
|
#SCROLL 1
|
|
8,
|
|
#BPMCHANGE 95.09
|
|
#SCROLL 0.99
|
|
100000000000200000000000100000000000200000000000,
|
|
#BPMCHANGE 95.43
|
|
100000100000100000000000200000000000200000000000,
|
|
#BPMCHANGE 94.77
|
|
#SCROLL 1
|
|
100000100000100000000000100000000000000000000000,
|
|
#BPMCHANGE 95.1
|
|
#SCROLL 0.99
|
|
100000100000100000000000200000000000000000000000,
|
|
1212,
|
|
#BPMCHANGE 95.81
|
|
10010107,
|
|
#BPMCHANGE 93.73
|
|
#SCROLL 1.01
|
|
00000800,
|
|
|
|
#GOGOEND
|
|
|
|
|
|
#END
|
|
|
|
|
|
COURSE:Easy
|
|
LEVEL:2
|
|
BALLOON:20,8
|
|
|
|
|
|
#START
|
|
|
|
|
|
200000000000000000000000000000000000000000000000,
|
|
#BPMCHANGE 95.73
|
|
#SCROLL 0.99
|
|
200000000000000000000000000000000000000000000000,
|
|
#BPMCHANGE 94.37
|
|
#SCROLL 1
|
|
200000000000000000000000000000000000000000000000,
|
|
#BPMCHANGE 95.04
|
|
#SCROLL 0.99
|
|
200000000000000000000000000000000000000000000000,
|
|
#BPMCHANGE 95.37
|
|
400000000000000000000000000000000000000000000000,
|
|
#BPMCHANGE 94.83
|
|
#SCROLL 1
|
|
200000000000000000000000000000000000000000000000,
|
|
#BPMCHANGE 95.07
|
|
#SCROLL 0.99
|
|
200000000000000000000000000000000000000000000000,
|
|
#BPMCHANGE 94.42
|
|
#SCROLL 1
|
|
300000000000300000000000300000000000000000000000,
|
|
#BPMCHANGE 95.98
|
|
#SCROLL 0.98
|
|
9,
|
|
#BPMCHANGE 94.07
|
|
#SCROLL 1
|
|
,
|
|
#BPMCHANGE 95.59
|
|
#SCROLL 0.99
|
|
,
|
|
#BPMCHANGE 95.1
|
|
8,
|
|
#BPMCHANGE 95.21
|
|
100000000000200000000000000000000000200000000000,
|
|
#BPMCHANGE 94.99
|
|
#SCROLL 1
|
|
100000000000200000000000000000000000200000000000,
|
|
#BPMCHANGE 95.21
|
|
#SCROLL 0.99
|
|
100000000000200000000000200000000000000000000000,
|
|
#BPMCHANGE 94.72
|
|
#SCROLL 1
|
|
100000000000200000000000200000000000000000000000,
|
|
#BPMCHANGE 95.07
|
|
#SCROLL 0.99
|
|
100000000000200000000000000000000000200000000000,
|
|
#BPMCHANGE 94.74
|
|
#SCROLL 1
|
|
100000000000200000000000000000000000200000000000,
|
|
#BPMCHANGE 95.21
|
|
#SCROLL 0.99
|
|
100000000000200000000000200000000000000000000000,
|
|
#BPMCHANGE 94.39
|
|
#SCROLL 1
|
|
100000000000200000000000200000000000000000000000,
|
|
#BPMCHANGE 95.93
|
|
#SCROLL 0.99
|
|
100000000000000000000000100000000000000000000000,
|
|
#BPMCHANGE 94.18
|
|
#SCROLL 1
|
|
500000000000000000000080000000000000000000000000,
|
|
#BPMCHANGE 95.58
|
|
#SCROLL 0.99
|
|
100000000000000000000000100000000000000000000000,
|
|
#BPMCHANGE 95.44
|
|
500000000000000000000000000080000000000000000000,
|
|
|
|
#GOGOSTART
|
|
#GOGOSTART
|
|
#BPMCHANGE 94.07
|
|
#SCROLL 1
|
|
100000000000100000000000100000000000000000000000,
|
|
#BPMCHANGE 95.32
|
|
#SCROLL 0.99
|
|
300000000000300000000000300000000000000000000000,
|
|
#BPMCHANGE 94.61
|
|
#SCROLL 1
|
|
100000000000000000000000100000000000000000000000,
|
|
#BPMCHANGE 95.54
|
|
#SCROLL 0.99
|
|
100000000000100000000000100000000000000000000000,
|
|
#BPMCHANGE 95.05
|
|
100000000000100000000000100000000000000000000000,
|
|
#BPMCHANGE 95
|
|
#SCROLL 1
|
|
300000000000300000000000300000000000000000000000,
|
|
#BPMCHANGE 95.41
|
|
#SCROLL 0.99
|
|
100000000000000000000000100000000000000000000000,
|
|
#BPMCHANGE 94.12
|
|
#SCROLL 1
|
|
10010109,
|
|
#BPMCHANGE 95.93
|
|
#SCROLL 0.99
|
|
,
|
|
#BPMCHANGE 94.56
|
|
#SCROLL 1
|
|
8,
|
|
#BPMCHANGE 95.09
|
|
#SCROLL 0.99
|
|
100000000000000000000000100000000000000000000000,
|
|
#BPMCHANGE 95.43
|
|
100000000000100000000000300000000000300000000000,
|
|
#BPMCHANGE 94.77
|
|
#SCROLL 1
|
|
100000000000100000000000100000000000000000000000,
|
|
#BPMCHANGE 95.1
|
|
#SCROLL 0.99
|
|
300000000000300000000000300000000000000000000000,
|
|
100000000000000000000000100000000000000000000000,
|
|
#BPMCHANGE 95.81
|
|
100000000000000000600000000000000000000000000000,
|
|
#BPMCHANGE 93.73
|
|
#SCROLL 1.01
|
|
000000000000000000000000000080000000000000000000,
|
|
|
|
#GOGOEND
|
|
|
|
|
|
#END
|
|
|