Files
ESE/01 Pop/Ye Lai Ye Ai/Ye Lai Ye Ai.tja
T

416 lines
16 KiB
Plaintext

//TJADB Project
TITLE:Ye Lai Ye Ai
TITLEZH:越來越愛
SUBTITLE:--Fahrenheit/To Get Her
BPM:171
WAVE:Ye Lai Ye Ai.ogg
OFFSET:-1.616
DEMOSTART:47.421
COURSE:Oni
LEVEL:8
BALLOON:20
SCOREINIT:700
SCOREDIFF:170
#START
100000000000100000200000000000100000000000000000,
#BPMCHANGE 170.95
100000000000100000200000000000100000000000000000,
100000000000100000200000000000100000000000000000,
#BPMCHANGE 168.83
100000000000100000200000000000200000000000200000,
#BPMCHANGE 168.96
100000000000100000200000000000100000000000000000,
#BPMCHANGE 170.17
100000000000100000200000000000100000000000000000,
100000000000100000200000000000100000000000000000,
#MEASURE 9/8
#BPMCHANGE 153
#SCROLL 1.11111111111
500000000000000000000000000000000000000008000000000000,
#MEASURE 4/4
#BPMCHANGE 170
#SCROLL 1
100000000000200000000000100000100000200000000000,
100000000000200000100000100000100000200000000000,
100000000000200000100000000000100000200000000000,
100000000000200000100000100000100000200000000000,
100000000000200000000000100000100000200000000000,
100000000000200000100000000000100000200000000000,
100000000000200000100000100000100000200000000000,
100000000000200000100000100000100000200000100000,
100000000000200000000000100000100000200000000000,
100000000000200000100000100000100000200000000000,
100000000000200000100000000000100000200000000000,
100000000000200000100000100000100000200000000000,
100000000000200000000000100000100000200000000000,
100000000000200000100000000000100000200000000000,
100000000000200000100000100000100000200000000000,
100000100000100000000000100100100000100100100000,
100000100000200000000000100000100000200000000000,
100000100000200000100000100000100000200000000000,
100000100000200000000000100000100000200000000000,
100000100000200000100000100000100000200000000000,
100000100000200000000000100000100000200000000000,
100000100000200000100000000000100000000000700000,
,
0000000000080000,
#GOGOSTART
100000100100100000100100100000100100100000100100,
100000200000100000200000100000200000100000100100,
100000000000100000100100100000100100100000100100,
100000200000100000200000100000200000100000100100,
100000000000100000100100100000100100100000100100,
100000200000100000200000100000200000100000100100,
100000000000200000100000000000100000200000100100,
100000200000000000100000200000100000400000400000,
100000100100100000200000000000100100100000200000,
000000100100100000200000000000100100100000200000,
000000100100100000200000000000100100100000200000,
000000400000000000100100100000100100100000100000,
100000100100100000100100100000100100100000100100,
100000200000100000200000100000200000100000100100,
100000000000200000100000000000100000200000000000,
100000100000000000100000000000100000000000000000,
100000200000100100100000100000200000100100100000,
100000200000100100100000100000200000100100100000,
100000200000100100100000100000200000100100100000,
300000300000000000300000000000300000000000000000,
100000200000100100200000100000200000100100200000,
100000200000100100200000100000200000100100200000,
100100200000100100200000100100200000100100200000,
300000300000000000300000000000300000000000000000,
#GOGOEND
#BPMCHANGE 170.2
300000000000000000000000200000000000000000100000,
#BPMCHANGE 170
100000000000100000000000200000000000000000100000,
100000000000100000000000200000000000000000000000,
100000000000100000200000000000100000100000000000,
100000000000100000000000200000000000000000000000,
100000000000000000100000200000100000000000100000,
100000000000100000000000200000000000100000000000,
000000000000000000000000000000000000000000000000,
100000000000000000100000200000000000000000100000,
000000000000100000000000200000000000100000100000,
100000000000100000200000000000100000000000100000,
000000100000000000100000000000100000000000000000,
100000000000000000100000200000000000000000100000,
000000000000100000000000100000000000100000000000,
000000000000100000000000000000000000100000000000,
#END
COURSE:Hard
LEVEL:6
BALLOON:10
SCOREINIT:830
SCOREDIFF:190
#START
100000000000000000000000000000000000000000000000,
#BPMCHANGE 170.95
100000000000000000000000000000000000000000000000,
100000000000000000000000000000000000000000000000,
#BPMCHANGE 168.83
100000000000000000200000000000200000000000200000,
#BPMCHANGE 168.96
100000000000000000200000000000200000000000000000,
#BPMCHANGE 170.17
100000000000000000200000000000200000000000000000,
100000000000000000200000000000200000000000000000,
#MEASURE 9/8
#BPMCHANGE 153
#SCROLL 1.11111111111
500000000000000000000008000000000000000000000000000000,
#MEASURE 4/4
#BPMCHANGE 170
#SCROLL 1
100000000000100000200000000000100000000000100000,
100000000000100000200000000000100000000000000000,
100000000000100000200000000000100000200000100000,
000000100000200000100000000000100000000000000000,
100000000000100000200000000000100000000000100000,
100000000000100000200000000000100000200000100000,
100000000000100000200000000000100000200000100000,
300000300000000000300000000000300000000000000000,
100000000000100000200000000000100000000000100000,
100000000000100000200000000000100000000000000000,
100000000000100000200000000000100000200000100000,
000000100000200000100000000000100000000000000000,
100000000000100000200000000000100000000000100000,
100000000000100000200000000000100000200000100000,
100000000000100000200000000000100000200000100000,
500000000000000000000008000000000000000000000000,
100000100000100000000000100000100000100000000000,
100000000000200000200000000000000000000000000000,
100000100000100000000000100000100000100000000000,
200000000000200000200000000000000000000000000000,
100000100000100000000000100000100000100000000000,
100000000000100000100000000000100000000000000000,
700000000000000000000000000000000000000000000000,
000000000000000000000008000000000000000000000000,
#GOGOSTART
300000000000000000100000100000200000000000100000,
000000100000200000100000000000100000200000100000,
300000000000000000100000100000200000000000100000,
000000100000200000100000000000100000200000100000,
300000000000000000100000100000200000000000100000,
000000100000200000100000000000100000200000100000,
300000000000200000100000000000100000200000100000,
100000000000200000100000000000000000000000000000,
100000100000200000100000000000100000100000000000,
100000100000200000100000000000100000100000000000,
100000100000200000100000000000100000100000000000,
300000000000000000000000000000000000000000000000,
300000000000000000100000100000200000000000100000,
000000100000200000100000000000100000200000100000,
300000000000200000100000000000100000200000100000,
100000200000000000100000000000200000000000100000,
500000000000000000000000000000000000000000008000,
000000000000000000000000000000000000000000000000,
100000000000200000100000000000100000200000100000,
100000200000000000100000000000200000000000100000,
100000000000200000100000000000100000200000100000,
100000000000200000100000000000100000200000100000,
100000000000200000100000000000100000200000100000,
300000300000000000300000000000300000000000000000,
#GOGOEND
#BPMCHANGE 170.2
300000000000000000000000200000000000000000100000,
#BPMCHANGE 170
100000000000100000000000200000000000000000100000,
100000000000100000000000200000000000000000000000,
100000000000100000200000000000100000100000000000,
100000000000100000000000200000000000000000000000,
100000000000000000100000200000100000000000100000,
100000000000100000000000200000000000100000000000,
000000000000000000000000000000000000000000000000,
100000000000000000100000200000000000000000100000,
000000000000100000000000200000000000000000000000,
100000000000000000100000200000000000000000100000,
000000000000100000000000200000000000000000000000,
100000000000000000100000200000000000000000100000,
000000000000100000000000200000000000000000000000,
100000000000000000000000000000000000500000000000,
000000000000000000000000000000000000000000008000,
#END
COURSE:Normal
LEVEL:4
BALLOON:10,10
#START
100000000000000000000000000000000000000000000000,
#BPMCHANGE 170.95
100000000000000000000000000000000000000000000000,
100000000000000000000000000000000000000000000000,
#BPMCHANGE 168.83
100000000000000000000000200000000000200000000000,
#BPMCHANGE 168.96
100000000000000000000000000000000000000000000000,
#BPMCHANGE 170.17
100000000000000000000000000000000000000000000000,
100000000000000000000000000000000000000000000000,
#MEASURE 9/8
#BPMCHANGE 153
#SCROLL 1.11111111111
500000000000000000000000000080000000000000000000000000,
#MEASURE 4/4
#BPMCHANGE 170
#SCROLL 1
100000000000200000000000100000000000000000000000,
100000000000200000000000000000000000000000000000,
100000000000200000000000100000000000000000000000,
100000000000200000000000000000000000000000000000,
100000000000200000000000100000000000000000000000,
100000000000200000000000000000000000000000000000,
100000000000200000000000100000000000000000000000,
300000000000000000000000000000000000000000000000,
100000000000200000000000100000000000000000000000,
100000000000100000100000000000000000000000000000,
100000000000200000000000100000000000000000000000,
100000000000100000100000000000000000000000000000,
100000000000200000000000100000000000000000000000,
100000000000100000100000000000000000000000000000,
100000000000200000000000100000000000000000000000,
500000000000000000000000000080000000000000000000,
100000100000100000000000100000000000000000000000,
100000000000100000100000000000000000000000000000,
100000100000100000000000100000000000000000000000,
200000000000200000200000000000000000000000000000,
100000100000100000000000100000100000100000000000,
100000000000100000100000000000000000100000000000,
700000000000000000000000000000000000000000000000,
000000000000000000000000000000000800000000000000,
#GOGOSTART
300000000000000000000000100000100000100000000000,
100000000000000000000000200000000000000000000000,
300000000000000000000000100000100000100000000000,
100000000000000000000000200000000000000000000000,
300000000000000000000000100000100000100000000000,
100000000000000000000000200000000000000000000000,
300000000000000000000000000000000000000000000000,
300000000000000000000000000000000000000000000000,
100000100000100000100000000000000000000000000000,
100000100000100000100000000000000000000000000000,
100000100000100000100000000000000000000000000000,
300000000000000000000000000000000000000000000000,
100000000000000000000000100000100000100000000000,
100000000000000000000000200000000000000000000000,
300000000000000000000000100000100000100000000000,
100000000000000000000000200000000000000000000000,
500000000000000000000000000000000000000000000080,
000000000000000000000000000000000000000000000000,
100000000000000000000000100000100000100000000000,
100000000000000000000000100000000000100000000000,
100000000000000000000000100000100000100000000000,
100000000000000000000000100000000000100000000000,
100000000000000000000000100000100000100000000000,
300000000000000000000000300000000000000000000000,
#GOGOEND
#BPMCHANGE 170.2
700000000000000000000000000000000000000000000000,
#BPMCHANGE 170
000000000000000000000000000000000800000000000000,
000000000000000000000000000000000000000000000000,
000000000000000000000000000000000000000000000000,
100000000000000000200000000000000000000000000000,
100000000000000000200000000000000000000000000000,
100000000000000000200000000000000000100000000000,
000000000000000000000000000000000000000000000000,
100000000000000000200000000000000000000000000000,
100000000000000000200000000000000000000000000000,
100000000000000000200000000000000000000000000000,
100000000000000000200000000000000000100000000000,
100000000000000000200000000000000000000000000000,
100000000000000000200000000000000000000000000000,
100000000000000000000000000000000000500000000000,
000000000000000000000000000000000000000000000080,
#END
COURSE:Easy
LEVEL:4
BALLOON:10
#START
100000000000000000000000000000000000000000000000,
#BPMCHANGE 170.95
100000000000000000000000000000000000000000000000,
100000000000000000000000000000000000000000000000,
#BPMCHANGE 168.83
100000000000000000000000000000000000000000000000,
#BPMCHANGE 168.96
100000000000000000000000000000000000000000000000,
#BPMCHANGE 170.17
100000000000000000000000000000000000000000000000,
100000000000000000000000000000000000000000000000,
#MEASURE 9/8
#BPMCHANGE 153
#SCROLL 1.11111111111
500000000000000000000000000080000000000000000000000000,
#MEASURE 4/4
#BPMCHANGE 170
#SCROLL 1
000000000000000000000000100000000000000000000000,
100000000000000000000000000000000000100000000000,
100000000000000000000000100000000000000000000000,
100000000000000000000000100000000000100000000000,
000000000000000000000000100000000000000000000000,
100000000000100000000000100000000000000000000000,
100000000000000000000000000000000000000000000000,
300000000000000000000000000000000000000000000000,
000000000000000000000000100000000000000000000000,
100000000000000000000000000000000000100000000000,
100000000000000000000000100000000000000000000000,
100000000000100000000000100000000000000000000000,
000000000000000000000000100000000000000000000000,
100000000000100000000000100000000000000000000000,
100000000000000000000000000000000000000000000000,
500000000000000000000000000080000000000000000000,
100000000000100000000000100000000000100000000000,
100000000000000000000000000000000000000000000000,
200000000000200000000000200000000000200000000000,
200000000000000000000000000000000000000000000000,
100000000000100000000000100000000000100000000000,
100000000000000000000000000000000000000000000000,
700000000000000000000000000000000000000000000000,
000000000000000000000000000000000800000000000000,
#GOGOSTART
300000000000300000000000300000000000000000000000,
300000000000300000000000300000000000000000000000,
300000000000000000000000000000000000000000000000,
100000000000000000000000100000000000000000000000,
100000000000000000000000100000000000100000000000,
100000000000000000000000100000000000100000000000,
100000000000000000000000000000000000000000000000,
100000000000000000000000000000000000000000000000,
100000000000000000200000000000000000000000000000,
100000000000000000200000000000000000000000000000,
100000000000000000200000000000000000000000000000,
100000000000000000000000000000000000000000000000,
300000000000300000000000300000000000000000000000,
300000000000300000000000300000000000000000000000,
300000000000000000000000000000000000000000000000,
100000000000000000000000100000000000000000000000,
500000000000000000000000000000000000000000000080,
000000000000000000000000000000000000000000000000,
100000000000000000000000100000000000000000000000,
100000000000000000000000100000000000100000000000,
100000000000000000000000000000000000000000000000,
100000000000000000000000000000000000000000000000,
100000000000000000000000100000000000000000000000,
100000000000000000000000100000000000100000000000,
#GOGOEND
#BPMCHANGE 170.2
100000000000000000000000000000000000000000000000,
#BPMCHANGE 170
000000000000000000000000000000000000000000000000,
000000000000000000000000000000000000000000000000,
000000000000000000000000000000000000000000000000,
100000000000000000000000200000000000000000000000,
100000000000000000000000000000000000000000000000,
100000000000000000000000200000000000000000000000,
100000000000000000000000000000000000000000000000,
000000000000000000000000100000000000000000000000,
100000000000000000000000000000000000100000000000,
100000000000000000000000100000000000000000000000,
100000000000000000000000000000000000000000000000,
100000000000000000000000200000000000000000000000,
100000000000100000000000100000000000000000000000,
100000000000000000000000000000000000500000000000,
000000000000000000000000000000000000000000000080,
#END