Files
ESE/01 Pop/Your Legend/Your Legend.tja
T

313 lines
12 KiB
Plaintext

//TJADB Project
TITLE:Your Legend
TITLEZH:將軍令(五月天)
SUBTITLE:--Mayday
BPM:98
WAVE:Your Legend.ogg
OFFSET:-2.491
DEMOSTART:103.772
COURSE:Oni
LEVEL:7
SCOREINIT:740
SCOREDIFF:205
#START
300000000000200000000000200000000000100100000000,
300000000000200000000000200000000000100100000000,
300000000000200000000000200000000000100100000000,
300000000000200000000000300000100000100100100000,
300000200200200000200200200200000200100100000000,
300000200200200000200200200200000200100100000000,
300000200200200000200200200200000200100100000000,
600000000000000000000000000000000008000000000000,
300000200200200000200200100200100200100100000000,
300000200200200000200200100200100200100100000000,
300000200200200000200200100200100200100100000000,
600000000000000000000000000000000008000000000000,
100000200000200000000100200000100000200100100000,
100000200000200000000100200000100000200100100000,
100000200000200000000100200000100000200000100000,
500000000000000000000000000000000008000000000000,
100000200000100000000100100000200000100000200000,
100000200000100000000100100000200000100000200000,
100000200000100000000100100000200000200100100000,
200000100000200000100000200000100100200100100000,
000000100100000100100000100100000100100000100100,
#MEASURE 2/4
000000000000000000000000,
#GOGOSTART
#MEASURE 4/4
300000000000300000000200100200100000200000000000,
100000200000100000200200100200100000200000200000,
300000000000200000200000100200100000200000100000,
600000000000000000000008000000000000100000100000,
100000000000200000000200100200100000200000000000,
400000000000400000000000400000000000000000100100,
100000100000200000100100100000100000200000000000,
600000000000000000000000000000000008000000000000,
#GOGOEND
100000100000200000000200100200100000200000000000,
300000300000400000300000300000000000200200100100,
100000100000200000000200100200100000200000000000,
300000300000100200000100200000100200200200100100,
100000100000200000100100100000100000200000000000,
200020001000200020001000200020001000200000000000,
100100200100100200100000500008000000201020102010,
#MEASURE 9/8
100000000000100000100000000000100000100000000000100000100000000000100000100000000000100000000000000000000000,
#GOGOSTART
#MEASURE 4/4
100000000000100000000000100000100000200000000000,
100000000000100000000000100000100000200000000000,
100000000000200000000000100000100000200000000000,
600000000000000000000008000000000000100000100000,
100000100000200000000200100200100000200000100000,
200100100100200100100100200100100100200000100100,
100000100000200000100100100000100000200000000000,
500000000000000000000000000000000008000000100100,
100000100000200000100100100000100000200000000000,
600000000000000000000000000000000008000000000000,
#GOGOEND
300000100000200000100000100000100000200200000000,
300000100000200000100000100000100000200200000000,
300000200100200100200100200100200100200200000000,
300000000000200000000000300000100000100100100000,
300000200000200000200000200000200000100100000000,
300000000000000000000000000000000000000000000000,
#END
COURSE:Hard
LEVEL:6
BALLOON:32,12
SCOREINIT:840
#START
300000000000000000000000000000000000100100000000,
300000000000000000000000000000000000100100000000,
300000000000000000000000000000000000100100000000,
300000000000200000000000100000100000100100100000,
300000000000200000000000200000200000100100000000,
300000000000200000000000200000200000100100000000,
300000000000200000000000200000200000100100000000,
600000000000000000000000000000000800000000000000,
300000000000200000000000100000100000100100000000,
300000000000200000000000100000100000100100000000,
300000000000200000000000100000100000100100000000,
600000000000000000000000000000000800000000000000,
100000200000200000000100200000100000200000100000,
100000200000200000000100200000100000200000100000,
100000200000200000000100200000100000200000100000,
500000000000000000000000000000000800000000000000,
100000200000100000000100100000200000100000200000,
100000200000100000000100100000200000100000200000,
100000200000100000000100100000200000200000100000,
700000000000000000000000000000000000000000000000,
000000000000000000000000000000000000000000000800,
#MEASURE 2/4
000000000000000000000000,
#GOGOSTART
#MEASURE 4/4
300000000000300000000200100000100000200000000000,
100000200000100000200000100000100000200000200000,
300000000000200000200000100000100000200000000000,
600000000000000000000800000000000000100000100000,
100000000000200000000200100000100000200000000000,
400000000000400000000000400000000000000000100100,
100000100000200000100100100000100000200000000000,
600000000000000000000000000000000800000000000000,
#GOGOEND
100000100000200000000200100000100000200000000000,
300000300000400000300000300000000000000000100100,
100000100000200000000200100000100000200000000000,
300000600000000000000000000000000800000000000000,
100000100000200000100100100000100000200000000000,
200020002000200020002000200020002000200000000000,
700000000000000000000000000000000800000000000000,
#MEASURE 5/4
000000100100000100100000100100000100100000100000000000000000,
#GOGOSTART
#MEASURE 4/4
100000000000100000000000100000100000200000000000,
100000000000100000000000100000100000200000000000,
100000000000200000000000100000100000200000000000,
600000000000000000000800000000000000100000100000,
100000000000200000000200100000100000200000000000,
400000000000400000000000400000000000000000000000,
100000100000200000100100100000100000200000000000,
500000000000000000000000000000000800000000000000,
100000100000200000100100100000100000200000000000,
600000000000000000000000000000000800000000000000,
#GOGOEND
300000000000200000000000100000100000200200000000,
300000000000200000000000100000100000200200000000,
300000000000200000000000100000100000200200000000,
300000000000200000000000300000000000200000000000,
300000200000200000200000200000200000100100000000,
300000000000000000000000000000000000000000000000,
#END
COURSE:Normal
LEVEL:4
BALLOON:30,11
SCOREINIT:770
#START
300000000000000000000000000000000000100000000000,
300000000000000000000000000000000000100000000000,
300000000000000000000000000000000000100000000000,
300000000000000000000000300000000000000000000000,
300000000000100000000000100000100000100000000000,
300000000000100000000000100000100000100000000000,
300000000000100000000000100000100000100000000000,
600000000000000000000000000000800000000000000000,
300000000000200000000000100000100000200000000000,
300000000000200000000000100000100000200000000000,
300000000000200000000000100000100000200000000000,
600000000000000000000000000000800000000000000000,
100000200000200000000000200000000000200000000000,
100000200000200000000000200000000000200000000000,
100000200000200000000000200000000000200000000000,
500000000000000000000000000000800000000000000000,
100000200000100000000000100000000000100000000000,
100000200000100000000000100000000000100000000000,
100000200000100000000000100000000000100000000000,
700000000000000000000000000000000000000000000000,
000000000000000000000000000000000000000000800000,
#MEASURE 2/4
000000000000000000000000,
#MEASURE 4/4
#GOGOSTART
300000000000300000000000300000000000000000000000,
100000200000100000200000100000000000000000000000,
300000000000000000000000100000200000100000000000,
600000000000000000800000000000000000000000000000,
300000000000400000000000300000000000400000000000,
400000000000400000000000400000000000000000000000,
100000100000200000000000100000100000200000000000,
600000000000000000000000000000800000000000000000,
#GOGOEND
100000100000200000000000100000100000200000000000,
100000100000200000100000500000800000000000000000,
100000100000200000000000100000100000200000000000,
300000600000000000000000000000800000000000000000,
100000100000200000000000100000100000200000000000,
400000000000400000000000400000000000400000000000,
700000000000000000000000000000800000000000000000,
#MEASURE 5/4
000000300000000300000000300000000300000000000000000000000000,
#MEASURE 4/4
#GOGOSTART
100000000000100000000000100000000000000000000000,
100000200000100000200000100000000000000000000000,
100000000000000000000000100000200000100000000000,
600000000000000000800000000000000000000000000000,
300000000000400000000000300000000000400000000000,
400000000000400000000000400000000000000000000000,
100000100000200000000000100000100000200000000000,
500000000000000000000000000000800000000000000000,
100000100000200000000000100000100000200000000000,
600000000000000000000000000000800000000000000000,
#GOGOEND
300000000000200000000000100000100000200000000000,
300000000000200000000000100000100000200000000000,
300000000000200000000000100000100000200000000000,
300000000000200000000000300000000000200000000000,
300000000000000000000000000000000000100000000000,
300000000000000000000000000000000000000000000000,
#END
COURSE:Easy
LEVEL:3
BALLOON:16,6
SCOREINIT:820
#START
300000000000000000000000000000000000100000000000,
300000000000000000000000000000000000100000000000,
300000000000000000000000000000000000100000000000,
300000000000000000000000300000000000000000000000,
300000000000000000000000000000000000100000000000,
300000000000000000000000000000000000100000000000,
300000000000000000000000000000000000100000000000,
600000000000000000000000800000000000000000000000,
300000000000000000000000100000000000100000000000,
300000000000000000000000100000000000100000000000,
300000000000000000000000100000000000100000000000,
600000000000000000000000000000000000800000000000,
000000000000200000000000000000000000200000000000,
000000000000200000000000000000000000200000000000,
000000000000200000000000000000000000200000000000,
500000000000000000000000800000000000000000000000,
100000000000200000000000000000000000200000000000,
100000000000200000000000000000000000200000000000,
100000000000200000000000000000000000200000000000,
700000000000000000000000000000000000000000000000,
000000000000000000000000000000000000000000800000,
#MEASURE 2/4
000000000000000000000000,
#MEASURE 4/4
#GOGOSTART
300000000000000000000000300000000000000000000000,
300000000000300000000000300000000000000000000000,
300000000000000000000000300000000000000000000000,
600000000000000000800000000000000000000000000000,
300000000000000000000000300000000000000000000000,
400000000000400000000000400000000000000000000000,
300000000000000000000000300000000000000000000000,
600000000000000000000000800000000000000000000000,
#GOGOEND
100000000000100000000000100000000000000000000000,
500000000000000000000000800000000000000000000000,
100000000000100000000000100000000000000000000000,
500000000000000000000000800000000000000000000000,
100000000000100000000000100000000000000000000000,
500000000000000000000000800000000000000000000000,
700000000000000000000000000000800000000000000000,
#MEASURE 5/4
000000600000000000000000000000800000000000000000000000000000,
#MEASURE 4/4
#GOGOSTART
100000000000000000000000100000000000000000000000,
100000000000100000000000100000000000000000000000,
100000000000000000000000100000000000000000000000,
600000000000000000800000000000000000000000000000,
300000000000000000000000300000000000000000000000,
400000000000400000000000400000000000000000000000,
100000000000000000000000100000000000000000000000,
500000000000000000000000800000000000000000000000,
300000000000000000000000300000000000000000000000,
600000000000000000000000800000000000000000000000,
#GOGOEND
300000000000000000000000000000000000100000000000,
300000000000000000000000000000000000100000000000,
300000000000000000000000000000000000100000000000,
300000000000000000000000300000000000000000000000,
300000000000000000000000000000000000100000000000,
300000000000000000000000000000000000000000000000,
#END