Files
ESE/01 Pop/independent/independent.tja
T
2023-06-15 19:15:39 -05:00

416 lines
13 KiB
Plaintext

//TJADB Project
TITLE:independent
TITLEJA:independent
SUBTITLE:--Ayumi Hamasaki/THE BASEBALL 2002
BPM:150
WAVE:independent.ogg
OFFSET:-1.935
DEMOSTART:77.918
COURSE:Oni
LEVEL:7
#START
000000000000000000000000000000000000000000000000,
000000000000000000000000000000000000000000000000,
000000000000000000000000000000000000000000000000,
100000000000100000000000100000100000100000000000,
100000100000100000100000000000100000100000000000,
100000000000100000000000100000100000100000000000,
100000100000100000100000000000100000100000000000,
100000000000100000000000100000100000100000000000,
100000100000100000100000000000100000100000000000,
100000000000100000000000100000100000100000000000,
100000100000100000100000000000100000100000000000,
100100100000100000200000000000100000200000000000,
100100100000100000200000000000100000200000000000,
100100100000100000200000000000100000200000000000,
100100100000100000200000000000100000200000000000,
100100100000100000200000000000100000200000000000,
100100100000100000200000000000100000200000000000,
100100100000100000200000000000100000200000000000,
100100100000100000200000000000100000200000000000,
100000000000000000000000000000000000000000000000,
000000000000000000000000000000000000000000000000,
100000100000100000000000100100100000200000200000,
100000100000100000000000100100100000200000200000,
100100100000100000100000000000200000200000000000,
100100100000100000100000000000200000200000000000,
100000100000200000000000100100100000200000200000,
100000100000200000000000100100100000200000200000,
100100100000100000100000000000200000200000000000,
100100100000100000100000000000200000200000000000,
100100100000100000200000100100100000100000200000,
100100100000100000200000000000200000200000000000,
100100100000100000200000100100100000100000200000,
100100100000100000200000000000200000200000000000,
100100100000100000200000100100100000100000200000,
100100100000100000200000000000200000200000000000,
100100100000100000200000100100100000100000300000,
000000000000000000000000000000000000000000000000,
100100200000100000100100200000100000100100200000,
100100100000100000100100100000100000100100100000,
100100200000100000100100200000100000100100200000,
100100100000100000100100100000100000100100100000,
100100200000100000100100200000100000100100200000,
100100100000100000100100100000100000100100100000,
100100200000100000100100200000100000100100200000,
100100100000100000100100100000100000100100100000,
100100200000100000100100200000100000100100200000,
#MEASURE 6/4
500000000000000000000000000000000008000000000000100000000000100000000000,
#MEASURE 4/4
100100100000100000200000100100100000100000200000,
100100100000100000200000100100100000100000200000,
100100100000100000200000000000000000000000000000,
000000000000000000000000100000000000100000000000,
100100100100200000000000100100100100200000000000,
100100100100200000000000100100100100200000000000,
100100100100200000000000100100100100200000000000,
100100100000200000100000000000200000100100200000,
100100100000100000200000100100100000100000200000,
100100100000100000200000100100100000100000200000,
100100100000100000200000000000000000000000000000,
000000000000000000000000100000000000100000000000,
100100100100200000000000100100100100200000000000,
100100100100200000000000100100100100200000000000,
100100100100200000000000100100100100200000000000,
100100100000200000100000000000100000000000300000,
#END
COURSE:Hard
LEVEL:6
SCOREINIT:580
SCOREDIFF:130
#START
,
,
,
10101110,
11110110,
10101110,
11110110,
10101110,
11110110,
10101110,
11110110,
1110102000102000,
1110102000102000,
1110102000102000,
1110102000102000,
1110102000102000,
1110102000102000,
1110102000102000,
1110102000102000,
1,
,
#BRANCHSTART p,75,90
#N
11101120,
11101120,
1110101000202000,
1110101000202000,
11201120,
11201120,
1110101000202000,
1110101000202000,
1010100011102000,
1010100011102000,
1110101000202000,
1110101000202000,
1010200011102000,
1010200011102000,
11121113,
,
1110101110101110,
1110101110101110,
1110101110101110,
1110101110101110,
1110101110101110,
1110101110101110,
1110101110101110,
1110101110101110,
1110101110101110,
#MEASURE 6/4
500000000000000000000000000000000008000000000000100000000000100000000000,
#MEASURE 4/4
1110100011101000,
1110100011101000,
1110100000000000,
0011,
1111100011111000,
1111100011111000,
,
1110201000201110,
1110100011101000,
1110100011101000,
1110100000000000,
0011,
1111100011111000,
1111100011111000,
,
1110201000100030,
#E
1010100011102000,
1010100011102000,
1110101000202000,
1110101000202000,
1010200011102000,
1010200011102000,
1110101000202000,
1110101000202000,
1110102011101000,
1110102000202000,
1110102011101000,
1110102000202000,
1110102011101000,
1110102000202000,
1110102011101030,
,
1110201110201110,
1110101110101110,
1110201110201110,
1110101110101110,
1110201110201110,
1110101110101110,
1110201110201110,
1110101110101110,
1110201110201110,
#MEASURE 6/4
500000000000000000000000000000000008000000000000100000000000100000000000,
#MEASURE 4/4
1110102011101020,
1110102011101020,
1110102000000000,
0011,
1111200011112000,
1111200011112000,
,
1110201000201120,
1110102011101020,
1110102011101020,
1110102000000000,
0011,
1111200011112000,
1111200011112000,
,
1110201000100030,
#M
1010100011102020,
1010100011102020,
1110101000202000,
1110101000202000,
1010200011102020,
1010200011102020,
1110101000202000,
1110101000202000,
1110102011101020,
1110102000202000,
1110102011101020,
1110102000202000,
1110102011101020,
1110102000202000,
1110102011101030,
,
1120101120101120,
1110101110101110,
1120101120101120,
1110101110101110,
1120101120101120,
1110101110101110,
1120101120101120,
1110101110101110,
1120101120101120,
#MEASURE 6/4
500000000000000000000000000000000008000000000000100000000000100000000000,
#MEASURE 4/4
1110102011101020,
1110102011101020,
1110102000000000,
0011,
1111200011112000,
1111200011112000,
1111200011112000,
1110201000201120,
1110102011101020,
1110102011101020,
1110102000000000,
0011,
1111200011112000,
1111200011112000,
1111200011112000,
1110201000100030,
#BRANCHEND
#END
COURSE:Normal
LEVEL:4
#START
000000000000000000000000000000000000000000000000,
000000000000000000000000000000000000000000000000,
000000000000000000000000000000000000000000000000,
100000000000100000000000100000000000000000000000,
100000100000100000100000000000000000000000000000,
100000000000100000000000100000000000000000000000,
100000100000100000100000000000000000000000000000,
100000000000100000000000100000000000000000000000,
100000100000100000100000000000000000000000000000,
100000000000100000000000100000000000000000000000,
100000100000100000100000000000000000000000000000,
100000000000100000000000000000000000200000000000,
100000000000100000000000000000000000200000000000,
100000000000100000000000000000000000200000000000,
100000000000100000000000000000000000200000000000,
100000000000100000000000000000200000200000000000,
100000000000100000000000000000200000200000000000,
100000000000100000000000000000200000200000000000,
100000000000100000000000000000200000200000000000,
100000000000000000000000000000000000000000000000,
000000000000000000000000000000000000000000000000,
100000100000100000000000100000000000000000000000,
100000100000100000000000100000000000000000000000,
100000000000100000000000200000000000000000000000,
100000000000100000000000200000000000000000000000,
100000100000100000000000100000000000000000000000,
100000100000100000000000100000000000000000000000,
100000000000100000000000200000000000000000000000,
100000000000100000000000200000000000000000000000,
100000100000100000000000100000000000200000000000,
100000000000000000000000100000000000200000000000,
100000100000100000000000100000000000200000000000,
100000000000000000000000100000000000200000000000,
100000100000100000000000100000000000200000000000,
100000000000000000000000100000000000200000000000,
100000100000100000000000100000000000200000000000,
100000000000100000000000100000000000000000000000,
100000000000000000000000100000000000000000000000,
100000000000000000100000100000000000200000000000,
100000000000000000000000100000000000000000000000,
100000000000000000100000100000000000200000000000,
100000000000000000000000100000000000000000000000,
100000000000000000100000100000000000200000000000,
100000000000000000000000100000000000000000000000,
100000000000000000100000100000000000200000000000,
100000000000100000000000100000000000100000000000,
#MEASURE 6/4
500000000000000000000000000000800000000000000000000000000000000000000000,
#MEASURE 4/4
100000000100000000200000100000000100000000200000,
100000000100000000200000100000000100000000200000,
100000000100000000200000000000000000000000000000,
000000000000000000000000100000000000100000000000,
500000000000000000000000000000000000000000800000,
000000000000000000000000100000100000100000100000,
000000000000000000000000000000000000000000000000,
100000100000100000100000000000000000200000000000,
100000000100000000200000100000000100000000200000,
100000000100000000200000100000000100000000200000,
100000000100000000200000000000000000000000000000,
000000000000000000000000100000000000100000000000,
500000000000000000000000000000000000000000800000,
000000000000000000000000100000100000100000100000,
000000000000000000000000000000000000000000000000,
100000100000100000100000000000100000000000300000,
#END
COURSE:Easy
LEVEL:2
#START
000000000000000000000000000000000000000000000000,
000000000000000000000000000000000000000000000000,
000000000000000000000000000000000000000000000000,
100000000000100000000000100000000000000000000000,
100000000000000000000000000000000000000000000000,
100000000000100000000000100000000000000000000000,
100000000000000000000000000000000000000000000000,
100000000000100000000000100000000000000000000000,
100000000000000000000000000000000000000000000000,
100000000000100000000000100000000000000000000000,
100000000000000000000000000000000000000000000000,
100000000000000000000000000000000000000000000000,
100000000000000000000000000000000000000000000000,
100000000000000000000000000000000000000000000000,
100000000000000000000000000000000000000000000000,
100000000000100000000000000000000000000000000000,
100000000000100000000000000000000000000000000000,
100000000000100000000000000000000000000000000000,
100000000000100000000000000000000000000000000000,
300000000000000000000000000000000000000000000000,
000000000000000000000000000000000000000000000000,
100000000000000000000000000000000000000000000000,
100000000000000000000000000000000000000000000000,
100000000000000000000000100000000000000000000000,
100000000000000000000000000000000000000000000000,
100000000000000000000000000000000000000000000000,
100000000000000000000000000000000000000000000000,
100000000000000000000000100000000000000000000000,
100000000000000000000000000000000000000000000000,
100000000000000000000000000000000000000000000000,
100000000000000000000000000000000000000000000000,
100000000000000000000000100000000000000000000000,
100000000000000000000000000000000000000000000000,
100000000000000000000000000000000000000000000000,
100000000000000000000000000000000000000000000000,
100000000000000000000000100000000000000000000000,
100000000000000000000000000000000000000000000000,
100000000000000000000000100000000000000000000000,
200000000000000000000000000000000000000000000000,
100000000000000000000000100000000000000000000000,
200000000000000000000000000000000000000000000000,
100000000000000000000000100000000000000000000000,
200000000000000000000000000000000000000000000000,
100000000000000000000000100000000000000000000000,
200000000000000000000000000000000000000000000000,
100000000000000000000000100000000000000000000000,
#MEASURE 6/4
500000000000000000000000000000800000000000000000000000000000000000000000,
#MEASURE 4/4
100000000000000000000000100000000000000000000000,
100000000000000000000000100000000000000000000000,
100000000000000000000000000000000000000000000000,
000000000000000000000000100000000000100000000000,
100000000000000000000000000000000000000000000000,
000000000000000000000000100000000000000000000000,
100000000000000000000000000000000000000000000000,
300000000000000000000000000000000000000000000000,
100000000000000000000000100000000000000000000000,
100000000000000000000000100000000000000000000000,
100000000000000000000000000000000000000000000000,
000000000000000000000000100000000000100000000000,
100000000000000000000000000000000000000000000000,
000000000000000000000000100000000000000000000000,
100000000000000000000000000000000000000000000000,
100000000000000000000000100000000000000000000000,
300000000000000000000000000000000000000000000000,
#END