2186 lines
42 KiB
Plaintext
2186 lines
42 KiB
Plaintext
//TJADB Project
|
|
TITLE:maximum the hormone
|
|
TITLEJA:maximum the hormone
|
|
SUBTITLE:--Maximum the Hormone
|
|
SUBTITLEJA:マキシマム ザ ホルモン
|
|
BPM:123.81
|
|
WAVE:maximum the hormone.ogg
|
|
OFFSET:-5.424
|
|
DEMOSTART:68.866
|
|
|
|
COURSE:Oni
|
|
LEVEL:8
|
|
BALLOON:5,5,5
|
|
SCOREINIT:370
|
|
SCOREDIFF:88
|
|
|
|
|
|
#START
|
|
|
|
|
|
#SCROLL 1.15
|
|
000000000000000000100100
|
|
#BPMCHANGE 125.29
|
|
#SCROLL 1.13
|
|
200000100000100000100000,
|
|
#BPMCHANGE 128.57
|
|
#SCROLL 1.1
|
|
100000000100100000100000
|
|
#BPMCHANGE 131.18
|
|
#SCROLL 1.08
|
|
200000100000100000100000,
|
|
#BPMCHANGE 131.57
|
|
100000000100100000100000
|
|
#BPMCHANGE 131.96
|
|
200000100000100000100000,
|
|
#BPMCHANGE 131.49
|
|
100000000100100000100000
|
|
#BPMCHANGE 133.08
|
|
#SCROLL 1.07
|
|
200000100000100000100000,
|
|
#BPMCHANGE 133.89
|
|
#SCROLL 1.06
|
|
100000000100100000100100
|
|
#BPMCHANGE 128.72
|
|
#SCROLL 1.1
|
|
200000100000100000100000,
|
|
#BPMCHANGE 130.56
|
|
#SCROLL 1.09
|
|
100000000100100000100000
|
|
#BPMCHANGE 132.44
|
|
#SCROLL 1.07
|
|
200000100000100000100000,
|
|
#BPMCHANGE 130.09
|
|
#SCROLL 1.09
|
|
100000000100100000100000
|
|
#BPMCHANGE 133.12
|
|
#SCROLL 1.07
|
|
200000100000100000100000,
|
|
#BPMCHANGE 132.08
|
|
100000000100100000100000
|
|
#BPMCHANGE 130.71
|
|
#SCROLL 1.09
|
|
200000100000100000100000,
|
|
#BPMCHANGE 136.04
|
|
#SCROLL 1.04
|
|
100000000100200000000000
|
|
#BPMCHANGE 135.87
|
|
100000100100100100100100,
|
|
#BPMCHANGE 132.6
|
|
#SCROLL 1.07
|
|
100000000100200000100000
|
|
#BPMCHANGE 135.7
|
|
#SCROLL 1.05
|
|
200000100100200000100000,
|
|
#BPMCHANGE 133.4
|
|
#SCROLL 1.06
|
|
100000000100200000100000
|
|
#BPMCHANGE 135.7
|
|
#SCROLL 1.05
|
|
200000100100200000100000,
|
|
#BPMCHANGE 134.21
|
|
#SCROLL 1.06
|
|
100000000100200000100000
|
|
#BPMCHANGE 135.7
|
|
#SCROLL 1.05
|
|
200000100100200000100000,
|
|
#BPMCHANGE 133.56
|
|
#SCROLL 1.06
|
|
100000000100200000100000
|
|
#BPMCHANGE 137.05
|
|
#SCROLL 1.04
|
|
200000100100200000100000,
|
|
#BPMCHANGE 133.08
|
|
#SCROLL 1.07
|
|
100000000100200000100000
|
|
#BPMCHANGE 136.37
|
|
#SCROLL 1.04
|
|
200000100100200000100000,
|
|
#BPMCHANGE 133.72
|
|
#SCROLL 1.06
|
|
100000000100200000100000
|
|
#BPMCHANGE 135.37
|
|
#SCROLL 1.05
|
|
200000100100200000100000,
|
|
#BPMCHANGE 133.24
|
|
#SCROLL 1.07
|
|
100000000100200000100000
|
|
#BPMCHANGE 136.71
|
|
#SCROLL 1.04
|
|
200000100100200000100000,
|
|
#BPMCHANGE 136.54
|
|
100000000100200000100000
|
|
#BPMCHANGE 147.9
|
|
#SCROLL 0.96
|
|
100100100100
|
|
#BPMCHANGE 141.45
|
|
#SCROLL 1
|
|
100100100100,
|
|
#BPMCHANGE 128.12
|
|
#SCROLL 1.11
|
|
100000100100
|
|
#BPMCHANGE 139.12
|
|
#SCROLL 1.02
|
|
200000100000
|
|
#BPMCHANGE 145.37
|
|
#SCROLL 0.98
|
|
100100200000
|
|
#BPMCHANGE 141.63
|
|
#SCROLL 1
|
|
100000100100,
|
|
#BPMCHANGE 143.66
|
|
#SCROLL 0.99
|
|
100000100100200000100000
|
|
#BPMCHANGE 148.3
|
|
#SCROLL 0.96
|
|
100100200000100000100100,
|
|
#BPMCHANGE 141.36
|
|
#SCROLL 1
|
|
100000100100200000100000
|
|
100100200000100000100100,
|
|
#BPMCHANGE 147.51
|
|
#SCROLL 0.96
|
|
100000100100200000100000
|
|
#BPMCHANGE 141.63
|
|
#SCROLL 1
|
|
100100200000100100100100,
|
|
#BPMCHANGE 141.81
|
|
100000100100200000100000
|
|
#BPMCHANGE 142.55
|
|
100100200000100000200100,
|
|
#BPMCHANGE 142.91
|
|
#SCROLL 0.99
|
|
100000100100200000100000
|
|
100100200000100000200100,
|
|
#BPMCHANGE 142.18
|
|
#SCROLL 1
|
|
100000100100200000100000
|
|
100100200000100000200100,
|
|
#BPMCHANGE 143.57
|
|
#SCROLL 0.99
|
|
100000100100200000100000
|
|
#BPMCHANGE 142.18
|
|
#SCROLL 1
|
|
100100200000
|
|
#BPMCHANGE 147.71
|
|
#SCROLL 0.96
|
|
100100100100,
|
|
#BPMCHANGE 138.43
|
|
#SCROLL 1.03
|
|
100000100100200000100000
|
|
#BPMCHANGE 144.23
|
|
#SCROLL 0.98
|
|
100100200000100000200100,
|
|
#BPMCHANGE 144.6
|
|
100000100100200000100000
|
|
100100200000100000200100,
|
|
#BPMCHANGE 140.91
|
|
#SCROLL 1.01
|
|
100000100100200000100000
|
|
#BPMCHANGE 144.61
|
|
#SCROLL 0.98
|
|
100100200000100000200100,
|
|
#BPMCHANGE 143.1
|
|
#SCROLL 0.99
|
|
100000100100200000100000
|
|
#BPMCHANGE 144.23
|
|
#SCROLL 0.98
|
|
100100200000
|
|
#BPMCHANGE 148.1
|
|
#SCROLL 0.96
|
|
100100100100,
|
|
#BPMCHANGE 131.81
|
|
#SCROLL 1.08
|
|
100000100100
|
|
#BPMCHANGE 144.22
|
|
#SCROLL 0.98
|
|
200000100000
|
|
#BPMCHANGE 143.48
|
|
#SCROLL 0.99
|
|
100100200000100000200100,
|
|
#BPMCHANGE 143.1
|
|
100000100100200000100000
|
|
#BPMCHANGE 144.99
|
|
#SCROLL 0.98
|
|
100100200000100000200100,
|
|
#BPMCHANGE 142.91
|
|
#SCROLL 0.99
|
|
100000100100200000100000
|
|
100100200000100000200100,
|
|
#BPMCHANGE 141.99
|
|
#SCROLL 1
|
|
100000100100200000100000
|
|
#BPMCHANGE 147.31
|
|
#SCROLL 0.96
|
|
100100200000
|
|
#BPMCHANGE 144.23
|
|
#SCROLL 0.98
|
|
100100100100,
|
|
#BPMCHANGE 140.55
|
|
#SCROLL 1.01
|
|
100000100100200000100000
|
|
#BPMCHANGE 143.1
|
|
#SCROLL 0.99
|
|
100100200000100000200100,
|
|
#BPMCHANGE 142.73
|
|
100000100100200000100000
|
|
#BPMCHANGE 143.48
|
|
100100200000100000200100,
|
|
#BPMCHANGE 141.27
|
|
#SCROLL 1
|
|
100000100100200000100000
|
|
#BPMCHANGE 145.37
|
|
#SCROLL 0.98
|
|
100100200000100000100100,
|
|
#BPMCHANGE 139.66
|
|
#SCROLL 1.02
|
|
700000000080000000000000
|
|
#BPMCHANGE 155.41
|
|
#SCROLL 1.82
|
|
100100100100100100100000,
|
|
#BPMCHANGE 144.98
|
|
#SCROLL 1.96
|
|
#GOGOSTART
|
|
300000000300000000400000
|
|
#BPMCHANGE 147.71
|
|
#SCROLL 1.92
|
|
100100100000100000200000,
|
|
#BPMCHANGE 150.53
|
|
#SCROLL 1.88
|
|
300000000300000000400000
|
|
#BPMCHANGE 153.46
|
|
#SCROLL 1.84
|
|
100100100000100100100000,
|
|
#BPMCHANGE 149.72
|
|
#SCROLL 1.9
|
|
300000000300000000400000
|
|
#BPMCHANGE 147.71
|
|
#SCROLL 1.92
|
|
100100100000100000200000,
|
|
#BPMCHANGE 149.6
|
|
#SCROLL 1.9
|
|
700000000000800000000000
|
|
#BPMCHANGE 154.44
|
|
#SCROLL 1.84
|
|
100100100100100100100000,
|
|
#BPMCHANGE 144.6
|
|
#SCROLL 1.96
|
|
300000000300000000400000
|
|
#BPMCHANGE 151.36
|
|
#SCROLL 1.88
|
|
100100100000100000200000,
|
|
#BPMCHANGE 151.77
|
|
#SCROLL 1.86
|
|
300000000300000000400000
|
|
#BPMCHANGE 160.53
|
|
#SCROLL 1.76
|
|
100100100100100100100000,
|
|
#BPMCHANGE 144.68
|
|
#SCROLL 1.96
|
|
300000000300000000400000
|
|
#BPMCHANGE 156.96
|
|
#SCROLL 1.8
|
|
100100100000100000200000,
|
|
#BPMCHANGE 145.18
|
|
#SCROLL 1.96
|
|
400000000400000000400000
|
|
#BPMCHANGE 155.64
|
|
#SCROLL 1.82
|
|
400000400000
|
|
#BPMCHANGE 159.69
|
|
#SCROLL 1.78
|
|
400000000000,
|
|
#BPMCHANGE 142.66
|
|
#SCROLL 1.98
|
|
#GOGOEND
|
|
400000000000000000000000
|
|
#BPMCHANGE 145.06
|
|
#SCROLL 0.98
|
|
000000000000000000000000,
|
|
#BPMCHANGE 143.1
|
|
#SCROLL 0.99
|
|
100000100100100000100000
|
|
#BPMCHANGE 147.31
|
|
#SCROLL 0.96
|
|
100100100000100000100100,
|
|
#BPMCHANGE 141.81
|
|
#SCROLL 1
|
|
100000100100100000100000
|
|
#BPMCHANGE 142.55
|
|
100100100000100000100100,
|
|
#BPMCHANGE 145.37
|
|
#SCROLL 0.98
|
|
100000100100100000100000
|
|
#BPMCHANGE 144.6
|
|
100100100000100100100100,
|
|
#BPMCHANGE 141.27
|
|
#SCROLL 1
|
|
200000100100200000200000
|
|
#BPMCHANGE 139.48
|
|
#SCROLL 1.02
|
|
100100200000100000100100,
|
|
#BPMCHANGE 144.41
|
|
#SCROLL 0.98
|
|
200000100100200000200000
|
|
100100200000100000100100,
|
|
#BPMCHANGE 140.37
|
|
#SCROLL 1.01
|
|
200000100100200000200000
|
|
100100200000100000100100,
|
|
#BPMCHANGE 145.75
|
|
#SCROLL 0.97
|
|
200000100100200000200000
|
|
100100100000200000200100,
|
|
#BPMCHANGE 141.63
|
|
#SCROLL 1
|
|
200000100100200000200000
|
|
#BPMCHANGE 142.37
|
|
100100100000200000200100,
|
|
#BPMCHANGE 142.7
|
|
#SCROLL 0.99
|
|
200000100100200000200000
|
|
100100100000200000200100,
|
|
#BPMCHANGE 145.04
|
|
#SCROLL 0.98
|
|
200000100100200000200000
|
|
#BPMCHANGE 140.19
|
|
#SCROLL 1.01
|
|
100100200000200000100100,
|
|
#BPMCHANGE 141.99
|
|
#SCROLL 1
|
|
200000100100200000200000
|
|
#BPMCHANGE 154.76
|
|
#SCROLL 1.84
|
|
100100100100100100100000,
|
|
#BPMCHANGE 154.52
|
|
#GOGOSTART
|
|
300000000300000000400000
|
|
#BPMCHANGE 150.44
|
|
#SCROLL 1.88
|
|
100100200000100000200000,
|
|
#BPMCHANGE 152.95
|
|
#SCROLL 1.86
|
|
300000000300000000400000
|
|
#BPMCHANGE 154.32
|
|
#SCROLL 1.84
|
|
100100100100100100100000,
|
|
#BPMCHANGE 150.73
|
|
#SCROLL 1.88
|
|
300000000300000000400000
|
|
#BPMCHANGE 149.26
|
|
#SCROLL 1.9
|
|
100100200000100000200000,
|
|
#BPMCHANGE 145.83
|
|
#SCROLL 1.94
|
|
700000000008000000000000
|
|
#BPMCHANGE 156.26
|
|
#SCROLL 1.82
|
|
100100100100100100100000,
|
|
#BPMCHANGE 152.61
|
|
#SCROLL 1.86
|
|
300000000300000000400000
|
|
#BPMCHANGE 150.95
|
|
#SCROLL 1.88
|
|
100100200000100000200000,
|
|
#BPMCHANGE 147.71
|
|
#SCROLL 1.92
|
|
300000000300000000400000
|
|
#BPMCHANGE 150.94
|
|
#SCROLL 1.88
|
|
100100100100100100100000,
|
|
#BPMCHANGE 145.75
|
|
#SCROLL 1.94
|
|
300000000300000000400000
|
|
#BPMCHANGE 148.1
|
|
#SCROLL 1.92
|
|
100100200000100000200000,
|
|
#BPMCHANGE 149.31
|
|
#SCROLL 1.9
|
|
400000000400000000400000
|
|
#BPMCHANGE 151.99
|
|
#SCROLL 1.86
|
|
100100100100100100100100,
|
|
#BPMCHANGE 179.94
|
|
#SCROLL 1.58
|
|
#GOGOEND
|
|
100000000000000000000000
|
|
#BPMCHANGE 187.5
|
|
#SCROLL 1.01
|
|
000000000000000000000000,
|
|
#BPMCHANGE 185.21
|
|
#SCROLL 1.02
|
|
000000000000000000000000
|
|
#BPMCHANGE 187.96
|
|
#SCROLL 1.01
|
|
000000200000200000200000,
|
|
#BPMCHANGE 189.83
|
|
#SCROLL 1
|
|
100000100000200000100000
|
|
#BPMCHANGE 188.43
|
|
000000200000200000100000,
|
|
#BPMCHANGE 189.36
|
|
100000100000200000100000
|
|
#BPMCHANGE 182.99
|
|
#SCROLL 1.03
|
|
000000200000100000100000,
|
|
#BPMCHANGE 186.99
|
|
#SCROLL 1.01
|
|
100000100000200000100000
|
|
#BPMCHANGE 189.41
|
|
#SCROLL 1
|
|
000000200000200000100000,
|
|
#BPMCHANGE 183.21
|
|
#SCROLL 1.03
|
|
100000100000200000100000
|
|
000000200000100000100000,
|
|
#BPMCHANGE 186.66
|
|
#SCROLL 1.01
|
|
100000100000200000100000
|
|
000000200000200000100000,
|
|
#BPMCHANGE 187.33
|
|
100000100000200000100000
|
|
#BPMCHANGE 188.89
|
|
#SCROLL 1
|
|
000000200000100000100000,
|
|
#BPMCHANGE 183.65
|
|
#SCROLL 1.03
|
|
100000100000200000100000
|
|
#BPMCHANGE 187.73
|
|
#SCROLL 1.01
|
|
000000200000200000100000,
|
|
#BPMCHANGE 189.36
|
|
#SCROLL 1
|
|
100000100000200000100000
|
|
#BPMCHANGE 184.38
|
|
#SCROLL 1.03
|
|
000000200000100000100000,
|
|
#BPMCHANGE 186.76
|
|
#SCROLL 1.01
|
|
100000100000200000100000000000200000200000100000,
|
|
#BPMCHANGE 189.98
|
|
#SCROLL 1
|
|
100000200000200000200000100000100000100000100000,
|
|
#BPMCHANGE 187.39
|
|
#SCROLL 1.01
|
|
100000100000200000100000000000100000200000100000,
|
|
#BPMCHANGE 188.36
|
|
#SCROLL 1
|
|
100000100000200000100000000000200200200000200000,
|
|
#BPMCHANGE 190.64
|
|
#SCROLL 0.99
|
|
100000100000200000100000000000200000100000100000,
|
|
#BPMCHANGE 190.97
|
|
100000100000200000100000100000200000100000100000,
|
|
100000100000200000100000000000200000100000100000,
|
|
#BPMCHANGE 191.8
|
|
100000100000200000100000000000200200200000200000,
|
|
#BPMCHANGE 192.8
|
|
#SCROLL 0.98
|
|
100000100000200000100000000000200000100000100000,
|
|
#BPMCHANGE 186.9
|
|
#SCROLL 1.01
|
|
100000100000100000100000
|
|
#BPMCHANGE 192.23
|
|
#SCROLL 0.98
|
|
100000100000100100100000,
|
|
#BPMCHANGE 195.19
|
|
#SCROLL 1.46
|
|
#GOGOSTART
|
|
100000100000200000100100
|
|
#BPMCHANGE 198.74
|
|
#SCROLL 1.43
|
|
000100200000100000200000,
|
|
#BPMCHANGE 199.03
|
|
100000100000200000100100100000200000300000000000,
|
|
#BPMCHANGE 196.24
|
|
#SCROLL 1.44
|
|
100000100000200000100100000100200000100000200000,
|
|
#BPMCHANGE 198.14
|
|
#SCROLL 1.43
|
|
100000100000200000100100
|
|
#BPMCHANGE 200.85
|
|
#SCROLL 1.41
|
|
000100100100100100100000,
|
|
#BPMCHANGE 196.2
|
|
#SCROLL 1.92
|
|
100000100000200000100100000100200000100000200000,
|
|
#BPMCHANGE 194.68
|
|
#SCROLL 1.94
|
|
100000100000200000100100100000200000300000000000,
|
|
#BPMCHANGE 197.47
|
|
#SCROLL 1.92
|
|
100000100000200000100100000100200000100000200000,
|
|
#BPMCHANGE 200.34
|
|
#SCROLL 1.88
|
|
100000100000200000100100
|
|
#BPMCHANGE 197.21
|
|
#SCROLL 1.92
|
|
100000200000500000000008,
|
|
#BPMCHANGE 108.44
|
|
#SCROLL 1.18
|
|
#GOGOEND
|
|
000000000000
|
|
#BPMCHANGE 123.58
|
|
#SCROLL 1.04
|
|
000000000000
|
|
#BPMCHANGE 144.17
|
|
#SCROLL 0.89
|
|
000000000000
|
|
#BPMCHANGE 134.5
|
|
#SCROLL 0.95
|
|
000000000000,
|
|
#BPMCHANGE 126.87
|
|
#SCROLL 1.01
|
|
000000000000
|
|
#BPMCHANGE 131.7
|
|
#SCROLL 0.97
|
|
000000100100
|
|
#BPMCHANGE 127.73
|
|
#SCROLL 1
|
|
200000100000
|
|
#BPMCHANGE 124.79
|
|
#SCROLL 1.03
|
|
200000100000,
|
|
#BPMCHANGE 127.72
|
|
#SCROLL 1
|
|
300000000000000000000000
|
|
#BPMCHANGE 129.46
|
|
#SCROLL 0.99
|
|
000000000000000000000000,
|
|
|
|
|
|
#END
|
|
|
|
|
|
COURSE:Hard
|
|
LEVEL:7
|
|
BALLOON:70,11,12,11,6
|
|
SCOREINIT:510
|
|
SCOREDIFF:120
|
|
|
|
|
|
#START
|
|
|
|
|
|
#SCROLL 1.15
|
|
000000000000000000100100
|
|
#BPMCHANGE 125.29
|
|
#SCROLL 1.13
|
|
100000100000100000000000,
|
|
#BPMCHANGE 128.57
|
|
#SCROLL 1.1
|
|
700000000000000000000000
|
|
#BPMCHANGE 131.18
|
|
#SCROLL 1.08
|
|
000000000000000000000000,
|
|
#BPMCHANGE 131.57
|
|
000000000000000000000000
|
|
#BPMCHANGE 131.96
|
|
000000000000000000000000,
|
|
#BPMCHANGE 131.49
|
|
000000000000000000000000
|
|
#BPMCHANGE 133.08
|
|
#SCROLL 1.07
|
|
000000000000000000000000,
|
|
#BPMCHANGE 133.89
|
|
#SCROLL 1.06
|
|
000000000000000000000000
|
|
#BPMCHANGE 128.72
|
|
#SCROLL 1.1
|
|
000000000000000008000000,
|
|
#BPMCHANGE 130.56
|
|
#SCROLL 1.09
|
|
100000000100000000100000
|
|
#BPMCHANGE 132.44
|
|
#SCROLL 1.07
|
|
200000100000100000100000,
|
|
#BPMCHANGE 130.09
|
|
#SCROLL 1.09
|
|
100000000100000000100000
|
|
#BPMCHANGE 133.12
|
|
#SCROLL 1.07
|
|
200000000000100000100000,
|
|
#BPMCHANGE 132.08
|
|
100000000100000000100000
|
|
#BPMCHANGE 130.71
|
|
#SCROLL 1.09
|
|
200000100000100000100000,
|
|
#BPMCHANGE 136.04
|
|
#SCROLL 1.04
|
|
100000000100200000000000
|
|
#BPMCHANGE 135.87
|
|
200000100100100000000000,
|
|
#BPMCHANGE 132.6
|
|
#SCROLL 1.07
|
|
100000000100100000000000
|
|
#BPMCHANGE 135.7
|
|
#SCROLL 1.05
|
|
100000100000200000000000,
|
|
#BPMCHANGE 133.4
|
|
#SCROLL 1.06
|
|
100000000100100000000000
|
|
#BPMCHANGE 135.7
|
|
#SCROLL 1.05
|
|
100000100000200000000000,
|
|
#BPMCHANGE 134.21
|
|
#SCROLL 1.06
|
|
100000000100100000000000
|
|
#BPMCHANGE 135.7
|
|
#SCROLL 1.05
|
|
100000100000200000000000,
|
|
#BPMCHANGE 133.56
|
|
#SCROLL 1.06
|
|
100000000100100000000000
|
|
#BPMCHANGE 137.05
|
|
#SCROLL 1.04
|
|
100000100000200000000000,
|
|
#BPMCHANGE 133.08
|
|
#SCROLL 1.07
|
|
300000000000000000300000
|
|
#BPMCHANGE 136.37
|
|
#SCROLL 1.04
|
|
000000100000200000000000,
|
|
#BPMCHANGE 133.72
|
|
#SCROLL 1.06
|
|
100000000100000000100000
|
|
#BPMCHANGE 135.37
|
|
#SCROLL 1.05
|
|
000000100000200000000000,
|
|
#BPMCHANGE 133.24
|
|
#SCROLL 1.07
|
|
300000000000000000300000
|
|
#BPMCHANGE 136.71
|
|
#SCROLL 1.04
|
|
000000100000200000000000,
|
|
#BPMCHANGE 136.54
|
|
100000000100000000100000
|
|
#BPMCHANGE 147.9
|
|
#SCROLL 0.96
|
|
000000100000
|
|
#BPMCHANGE 141.45
|
|
#SCROLL 1
|
|
200000000000,
|
|
#BPMCHANGE 128.12
|
|
#SCROLL 1.11
|
|
100000100100
|
|
#BPMCHANGE 139.12
|
|
#SCROLL 1.02
|
|
100000100000
|
|
#BPMCHANGE 145.37
|
|
#SCROLL 0.98
|
|
100000100000
|
|
#BPMCHANGE 141.63
|
|
#SCROLL 1
|
|
000000000000,
|
|
#BPMCHANGE 143.66
|
|
#SCROLL 0.99
|
|
100000100100100000100000
|
|
#BPMCHANGE 148.3
|
|
#SCROLL 0.96
|
|
100000100000000000000000,
|
|
#BPMCHANGE 141.36
|
|
#SCROLL 1
|
|
100000100100100000100000
|
|
100000100000000000000000,
|
|
#BPMCHANGE 147.51
|
|
#SCROLL 0.96
|
|
100000100100100000100000
|
|
#BPMCHANGE 141.63
|
|
#SCROLL 1
|
|
100000100000000000000000,
|
|
#BPMCHANGE 141.81
|
|
100000100100100000000000
|
|
#BPMCHANGE 142.55
|
|
100000100000100000000000,
|
|
#BPMCHANGE 142.91
|
|
#SCROLL 0.99
|
|
100000100100100000000000
|
|
100000100000100000000000,
|
|
#BPMCHANGE 142.18
|
|
#SCROLL 1
|
|
100000100100100000000000
|
|
100000100000100000100000,
|
|
#BPMCHANGE 143.57
|
|
#SCROLL 0.99
|
|
500000000000000000000008
|
|
#BPMCHANGE 142.18
|
|
#SCROLL 1
|
|
000000000000
|
|
#BPMCHANGE 147.71
|
|
#SCROLL 0.96
|
|
000000000000,
|
|
#BPMCHANGE 138.43
|
|
#SCROLL 1.03
|
|
100000100100100000000000
|
|
#BPMCHANGE 144.23
|
|
#SCROLL 0.98
|
|
100000100000100000100000,
|
|
#BPMCHANGE 144.6
|
|
100000100100100000000000
|
|
100000100000100000100000,
|
|
#BPMCHANGE 140.91
|
|
#SCROLL 1.01
|
|
100000100100100000000000
|
|
#BPMCHANGE 144.61
|
|
#SCROLL 0.98
|
|
100000100000100000100000,
|
|
#BPMCHANGE 143.1
|
|
#SCROLL 0.99
|
|
500000000000000000000008
|
|
#BPMCHANGE 144.23
|
|
#SCROLL 0.98
|
|
000000000000
|
|
#BPMCHANGE 148.1
|
|
#SCROLL 0.96
|
|
000000000000,
|
|
#BPMCHANGE 131.81
|
|
#SCROLL 1.08
|
|
100000100100
|
|
#BPMCHANGE 144.22
|
|
#SCROLL 0.98
|
|
100000100000
|
|
#BPMCHANGE 143.48
|
|
#SCROLL 0.99
|
|
100000100100100000000000,
|
|
#BPMCHANGE 143.1
|
|
100000100100100000100000
|
|
#BPMCHANGE 144.99
|
|
#SCROLL 0.98
|
|
100000100100100000000000,
|
|
#BPMCHANGE 142.91
|
|
#SCROLL 0.99
|
|
100000100100100000100000
|
|
100000100100100000100000,
|
|
#BPMCHANGE 141.99
|
|
#SCROLL 1
|
|
500000000000000000000008
|
|
#BPMCHANGE 147.31
|
|
#SCROLL 0.96
|
|
000000000000
|
|
#BPMCHANGE 144.23
|
|
#SCROLL 0.98
|
|
000000000000,
|
|
#BPMCHANGE 140.55
|
|
#SCROLL 1.01
|
|
100000100100100000100000
|
|
#BPMCHANGE 143.1
|
|
#SCROLL 0.99
|
|
100000100000100000100000,
|
|
#BPMCHANGE 142.73
|
|
100000100100100000100000
|
|
#BPMCHANGE 143.48
|
|
100100100000100000100000,
|
|
#BPMCHANGE 141.27
|
|
#SCROLL 1
|
|
100000100100100000100000
|
|
#BPMCHANGE 145.37
|
|
#SCROLL 0.98
|
|
100100100000100000100000,
|
|
#BPMCHANGE 139.66
|
|
#SCROLL 1.02
|
|
700000000000000000000000
|
|
#BPMCHANGE 155.41
|
|
#SCROLL 1.37
|
|
000000000800000000000000,
|
|
#BPMCHANGE 144.98
|
|
#SCROLL 1.47
|
|
#GOGOSTART
|
|
300000000300000000300000
|
|
#BPMCHANGE 147.71
|
|
#SCROLL 1.44
|
|
100000100000200000100000,
|
|
#BPMCHANGE 150.53
|
|
#SCROLL 1.41
|
|
300000000300000000300000
|
|
#BPMCHANGE 153.46
|
|
#SCROLL 1.38
|
|
100000100000200000100000,
|
|
#BPMCHANGE 149.72
|
|
#SCROLL 1.43
|
|
300000000300000000300000
|
|
#BPMCHANGE 147.71
|
|
#SCROLL 1.44
|
|
100000100000200000100000,
|
|
#BPMCHANGE 149.6
|
|
#SCROLL 1.43
|
|
700000000000000000000000
|
|
#BPMCHANGE 154.44
|
|
#SCROLL 1.38
|
|
000000000000080000000000,
|
|
#BPMCHANGE 144.6
|
|
#SCROLL 1.47
|
|
300000000300000000300000
|
|
#BPMCHANGE 151.36
|
|
#SCROLL 1.41
|
|
100000100000200000100000,
|
|
#BPMCHANGE 151.77
|
|
#SCROLL 1.4
|
|
300000000300000000300000
|
|
#BPMCHANGE 160.53
|
|
#SCROLL 1.32
|
|
100000100000200000100000,
|
|
#BPMCHANGE 144.68
|
|
#SCROLL 1.47
|
|
300000000300000000300000
|
|
#BPMCHANGE 156.96
|
|
#SCROLL 1.35
|
|
100000100000200000100000,
|
|
#BPMCHANGE 145.18
|
|
#SCROLL 1.47
|
|
500000000000000000000000
|
|
#BPMCHANGE 155.64
|
|
#SCROLL 1.37
|
|
000000000000
|
|
#BPMCHANGE 159.69
|
|
#SCROLL 1.34
|
|
800000000000,
|
|
#BPMCHANGE 142.66
|
|
#SCROLL 1.49
|
|
#GOGOEND
|
|
400000000000000000000000
|
|
#BPMCHANGE 145.06
|
|
#SCROLL 0.98
|
|
000000000000000000000000,
|
|
#BPMCHANGE 143.1
|
|
#SCROLL 0.99
|
|
000000000000000000000000
|
|
#BPMCHANGE 147.31
|
|
#SCROLL 0.96
|
|
000000000000000000000000,
|
|
#BPMCHANGE 141.81
|
|
#SCROLL 1
|
|
000000000000000000000000
|
|
#BPMCHANGE 142.55
|
|
000000000000000000000000,
|
|
#BPMCHANGE 145.37
|
|
#SCROLL 0.98
|
|
000000000000000000000000
|
|
#BPMCHANGE 144.6
|
|
000000000000000000000000,
|
|
#BPMCHANGE 141.27
|
|
#SCROLL 1
|
|
100000000000100000100000
|
|
#BPMCHANGE 139.48
|
|
#SCROLL 1.02
|
|
000000200000000000000000,
|
|
#BPMCHANGE 144.41
|
|
#SCROLL 0.98
|
|
100000000000100000100000
|
|
000000200000000000000000,
|
|
#BPMCHANGE 140.37
|
|
#SCROLL 1.01
|
|
100000000000100000100000
|
|
000000200000000000000000,
|
|
#BPMCHANGE 145.75
|
|
#SCROLL 0.97
|
|
100000000000100000100000
|
|
000000200000000000000000,
|
|
#BPMCHANGE 141.63
|
|
#SCROLL 1
|
|
100000000000200000100000
|
|
#BPMCHANGE 142.37
|
|
000000100000100000000000,
|
|
#BPMCHANGE 142.7
|
|
#SCROLL 0.99
|
|
100000000000200000100000
|
|
000000100000200000000000,
|
|
#BPMCHANGE 145.04
|
|
#SCROLL 0.98
|
|
100000000000200000100000
|
|
#BPMCHANGE 140.19
|
|
#SCROLL 1.01
|
|
000000100000100000000000,
|
|
#BPMCHANGE 141.99
|
|
#SCROLL 1
|
|
100000000000200000100000
|
|
#BPMCHANGE 154.76
|
|
#SCROLL 1.38
|
|
500000000000000008000000,
|
|
#BPMCHANGE 154.52
|
|
#GOGOSTART
|
|
300000000300000000300000
|
|
#BPMCHANGE 150.44
|
|
#SCROLL 1.41
|
|
100000100000200000100000,
|
|
#BPMCHANGE 152.95
|
|
#SCROLL 1.4
|
|
300000000300000000300000
|
|
#BPMCHANGE 154.32
|
|
#SCROLL 1.38
|
|
100000100000200000100000,
|
|
#BPMCHANGE 150.73
|
|
#SCROLL 1.41
|
|
300000000300000000300000
|
|
#BPMCHANGE 149.26
|
|
#SCROLL 1.43
|
|
100000100000200000100000,
|
|
#BPMCHANGE 145.83
|
|
#SCROLL 1.46
|
|
700000000000000000000000
|
|
#BPMCHANGE 156.26
|
|
#SCROLL 1.37
|
|
000000000080000000000000,
|
|
#BPMCHANGE 152.61
|
|
#SCROLL 1.4
|
|
300000000300000000300000
|
|
#BPMCHANGE 150.95
|
|
#SCROLL 1.41
|
|
100000100000200000100000,
|
|
#BPMCHANGE 147.71
|
|
#SCROLL 1.44
|
|
300000000300000000300000
|
|
#BPMCHANGE 150.94
|
|
#SCROLL 1.41
|
|
100000100000200000100000,
|
|
#BPMCHANGE 145.75
|
|
#SCROLL 1.46
|
|
300000000300000000300000
|
|
#BPMCHANGE 148.1
|
|
#SCROLL 1.44
|
|
100000100000200000100000,
|
|
#BPMCHANGE 149.31
|
|
#SCROLL 1.43
|
|
500000000000000000000000
|
|
#BPMCHANGE 151.99
|
|
#SCROLL 1.4
|
|
000000000008000000000000,
|
|
#BPMCHANGE 179.94
|
|
#SCROLL 1.19
|
|
#GOGOEND
|
|
400000000000000000000000
|
|
#BPMCHANGE 187.5
|
|
#SCROLL 1.01
|
|
000000000000000000000000,
|
|
#BPMCHANGE 185.21
|
|
#SCROLL 1.02
|
|
000000000000000000000000
|
|
#BPMCHANGE 187.96
|
|
#SCROLL 1.01
|
|
000000000000000000000000,
|
|
#BPMCHANGE 189.83
|
|
#SCROLL 1
|
|
100000100000200000000000
|
|
#BPMCHANGE 188.43
|
|
100000100000000000100000,
|
|
#BPMCHANGE 189.36
|
|
100000100000200000000000
|
|
#BPMCHANGE 182.99
|
|
#SCROLL 1.03
|
|
100000100000000000000000,
|
|
#BPMCHANGE 186.99
|
|
#SCROLL 1.01
|
|
100000100000200000100000
|
|
#BPMCHANGE 189.41
|
|
#SCROLL 1
|
|
000000100000200000100000,
|
|
#BPMCHANGE 183.21
|
|
#SCROLL 1.03
|
|
100000000000200000100000
|
|
000000000000200000000000,
|
|
#BPMCHANGE 186.66
|
|
#SCROLL 1.01
|
|
100000100000200000100000
|
|
000000100000200000100000,
|
|
#BPMCHANGE 187.33
|
|
100000000000000000000000
|
|
#BPMCHANGE 188.89
|
|
#SCROLL 1
|
|
000000000000000000000000,
|
|
#BPMCHANGE 183.65
|
|
#SCROLL 1.03
|
|
100000100000200000100000
|
|
#BPMCHANGE 187.73
|
|
#SCROLL 1.01
|
|
000000100000200000000000,
|
|
#BPMCHANGE 189.36
|
|
#SCROLL 1
|
|
100000100000200000100000
|
|
#BPMCHANGE 184.38
|
|
#SCROLL 1.03
|
|
000000000000200000000000,
|
|
#BPMCHANGE 186.76
|
|
#SCROLL 1.01
|
|
100000100000200000100000000000100000200000100000,
|
|
#BPMCHANGE 189.98
|
|
#SCROLL 1
|
|
100000000000000000000000000000000000000000000000,
|
|
#BPMCHANGE 187.39
|
|
#SCROLL 1.01
|
|
100000000000200000100000000000100000200000000000,
|
|
#BPMCHANGE 188.36
|
|
#SCROLL 1
|
|
100000000000200000100000000000200200200000200000,
|
|
#BPMCHANGE 190.64
|
|
#SCROLL 0.99
|
|
100000000000200000100000000000100000200000000000,
|
|
#BPMCHANGE 190.97
|
|
100000000000000000000000000000000000000000000000,
|
|
100000000000200000100000000000100000200000000000,
|
|
#BPMCHANGE 191.8
|
|
100000000000200000100000000000200200200000200000,
|
|
#BPMCHANGE 192.8
|
|
#SCROLL 0.98
|
|
100000000000200000100000000000100000200000000000,
|
|
#BPMCHANGE 186.9
|
|
#SCROLL 1.01
|
|
700000000000000000000080
|
|
#BPMCHANGE 192.23
|
|
#SCROLL 0.98
|
|
000000000000000000000000,
|
|
#BPMCHANGE 195.19
|
|
#SCROLL 1.46
|
|
#GOGOSTART
|
|
100000100000100000100100
|
|
#BPMCHANGE 198.74
|
|
#SCROLL 1.43
|
|
100000100000100000000000,
|
|
#BPMCHANGE 199.03
|
|
100000100000100000100100100000100000300000000000,
|
|
#BPMCHANGE 196.24
|
|
#SCROLL 1.44
|
|
100000100000100000100100100000100000100000100000,
|
|
#BPMCHANGE 198.14
|
|
#SCROLL 1.43
|
|
300000000000000000000000
|
|
#BPMCHANGE 200.85
|
|
#SCROLL 1.41
|
|
500000000000000008000000,
|
|
#BPMCHANGE 196.2
|
|
#SCROLL 1.44
|
|
100000100000100000100100100000100000100000000000,
|
|
#BPMCHANGE 194.68
|
|
#SCROLL 1.46
|
|
100000100000100000100100100000100000300000000000,
|
|
#BPMCHANGE 197.47
|
|
#SCROLL 1.44
|
|
100000100000100000100100100000100000100000100000,
|
|
#BPMCHANGE 200.34
|
|
#SCROLL 1.41
|
|
300000000000000000000000
|
|
#BPMCHANGE 197.21
|
|
#SCROLL 1.44
|
|
500000000000000008000000,
|
|
#BPMCHANGE 108.44
|
|
#SCROLL 1.18
|
|
#GOGOEND
|
|
000000000000
|
|
#BPMCHANGE 123.58
|
|
#SCROLL 1.04
|
|
000000000000
|
|
#BPMCHANGE 144.17
|
|
#SCROLL 0.89
|
|
000000000000
|
|
#BPMCHANGE 134.5
|
|
#SCROLL 0.95
|
|
000000000000,
|
|
#BPMCHANGE 126.87
|
|
#SCROLL 1.01
|
|
000000000000
|
|
#BPMCHANGE 131.7
|
|
#SCROLL 0.97
|
|
000000100100
|
|
#BPMCHANGE 127.73
|
|
#SCROLL 1
|
|
100000100000
|
|
#BPMCHANGE 124.79
|
|
#SCROLL 1.03
|
|
100000000000,
|
|
#BPMCHANGE 127.72
|
|
#SCROLL 1
|
|
300000000000000000000000
|
|
#BPMCHANGE 129.46
|
|
#SCROLL 0.99
|
|
000000000000000000000000,
|
|
|
|
|
|
#END
|
|
|
|
|
|
COURSE:Normal
|
|
LEVEL:6
|
|
BALLOON:52,8,9,8,4
|
|
SCOREINIT:610
|
|
SCOREDIFF:158
|
|
|
|
|
|
#START
|
|
|
|
|
|
#SCROLL 1.15
|
|
000000000000000000000000
|
|
#BPMCHANGE 125.29
|
|
#SCROLL 1.13
|
|
000000000000000000000000,
|
|
#BPMCHANGE 128.57
|
|
#SCROLL 1.1
|
|
700000000000000000000000
|
|
#BPMCHANGE 131.18
|
|
#SCROLL 1.08
|
|
000000000000000000000000,
|
|
#BPMCHANGE 131.57
|
|
000000000000000000000000
|
|
#BPMCHANGE 131.96
|
|
000000000000000000000000,
|
|
#BPMCHANGE 131.49
|
|
000000000000000000000000
|
|
#BPMCHANGE 133.08
|
|
#SCROLL 1.07
|
|
000000000000000000000000,
|
|
#BPMCHANGE 133.89
|
|
#SCROLL 1.06
|
|
000000000000000000000000
|
|
#BPMCHANGE 128.72
|
|
#SCROLL 1.1
|
|
000000000000000008000000,
|
|
#BPMCHANGE 130.56
|
|
#SCROLL 1.09
|
|
100000000000100000000000
|
|
#BPMCHANGE 132.44
|
|
#SCROLL 1.07
|
|
200000000000100000000000,
|
|
#BPMCHANGE 130.09
|
|
#SCROLL 1.09
|
|
100000000000100000000000
|
|
#BPMCHANGE 133.12
|
|
#SCROLL 1.07
|
|
200000000000100000000000,
|
|
#BPMCHANGE 132.08
|
|
100000000000100000000000
|
|
#BPMCHANGE 130.71
|
|
#SCROLL 1.09
|
|
200000000000100000000000,
|
|
#BPMCHANGE 136.04
|
|
#SCROLL 1.04
|
|
100000000000100000000000
|
|
#BPMCHANGE 135.87
|
|
200000000000000000000000,
|
|
#BPMCHANGE 132.6
|
|
#SCROLL 1.07
|
|
100000000000100000000000
|
|
#BPMCHANGE 135.7
|
|
#SCROLL 1.05
|
|
100000100000100000000000,
|
|
#BPMCHANGE 133.4
|
|
#SCROLL 1.06
|
|
100000000000100000000000
|
|
#BPMCHANGE 135.7
|
|
#SCROLL 1.05
|
|
100000100000100000000000,
|
|
#BPMCHANGE 134.21
|
|
#SCROLL 1.06
|
|
100000000000100000000000
|
|
#BPMCHANGE 135.7
|
|
#SCROLL 1.05
|
|
100000100000100000000000,
|
|
#BPMCHANGE 133.56
|
|
#SCROLL 1.06
|
|
100000000000100000000000
|
|
#BPMCHANGE 137.05
|
|
#SCROLL 1.04
|
|
100000100000100000000000,
|
|
#BPMCHANGE 133.08
|
|
#SCROLL 1.07
|
|
300000000000000000300000
|
|
#BPMCHANGE 136.37
|
|
#SCROLL 1.04
|
|
000000000000000000000000,
|
|
#BPMCHANGE 133.72
|
|
#SCROLL 1.06
|
|
100000000100000000100000
|
|
#BPMCHANGE 135.37
|
|
#SCROLL 1.05
|
|
000000000000000000000000,
|
|
#BPMCHANGE 133.24
|
|
#SCROLL 1.07
|
|
300000000000000000300000
|
|
#BPMCHANGE 136.71
|
|
#SCROLL 1.04
|
|
000000000000000000000000,
|
|
#BPMCHANGE 136.54
|
|
100000000100000000100000
|
|
#BPMCHANGE 147.9
|
|
#SCROLL 0.96
|
|
000000000000
|
|
#BPMCHANGE 141.45
|
|
#SCROLL 1
|
|
000000000000,
|
|
#BPMCHANGE 128.12
|
|
#SCROLL 1.11
|
|
100000000000
|
|
#BPMCHANGE 139.12
|
|
#SCROLL 1.02
|
|
000000000000
|
|
#BPMCHANGE 145.37
|
|
#SCROLL 0.98
|
|
100000100000
|
|
#BPMCHANGE 141.63
|
|
#SCROLL 1
|
|
000000000000,
|
|
#BPMCHANGE 143.66
|
|
#SCROLL 0.99
|
|
100000000000000000000000
|
|
#BPMCHANGE 148.3
|
|
#SCROLL 0.96
|
|
100000100000000000000000,
|
|
#BPMCHANGE 141.36
|
|
#SCROLL 1
|
|
100000000000000000000000
|
|
100000100000000000000000,
|
|
#BPMCHANGE 147.51
|
|
#SCROLL 0.96
|
|
100000000000000000000000
|
|
#BPMCHANGE 141.63
|
|
#SCROLL 1
|
|
100000100000000000000000,
|
|
#BPMCHANGE 141.81
|
|
100000000000100000000000
|
|
#BPMCHANGE 142.55
|
|
100000100000000000000000,
|
|
#BPMCHANGE 142.91
|
|
#SCROLL 0.99
|
|
100000000000100000000000
|
|
100000100000000000000000,
|
|
#BPMCHANGE 142.18
|
|
#SCROLL 1
|
|
100000000000100000000000
|
|
100000100000000000000000,
|
|
#BPMCHANGE 143.57
|
|
#SCROLL 0.99
|
|
500000000000000000000008
|
|
#BPMCHANGE 142.18
|
|
#SCROLL 1
|
|
000000000000
|
|
#BPMCHANGE 147.71
|
|
#SCROLL 0.96
|
|
000000000000,
|
|
#BPMCHANGE 138.43
|
|
#SCROLL 1.03
|
|
100000000000200000000000
|
|
#BPMCHANGE 144.23
|
|
#SCROLL 0.98
|
|
100000100000000000000000,
|
|
#BPMCHANGE 144.6
|
|
100000000000200000000000
|
|
100000100000000000000000,
|
|
#BPMCHANGE 140.91
|
|
#SCROLL 1.01
|
|
100000000000200000000000
|
|
#BPMCHANGE 144.61
|
|
#SCROLL 0.98
|
|
100000100000000000000000,
|
|
#BPMCHANGE 143.1
|
|
#SCROLL 0.99
|
|
500000000000000000000008
|
|
#BPMCHANGE 144.23
|
|
#SCROLL 0.98
|
|
000000000000
|
|
#BPMCHANGE 148.1
|
|
#SCROLL 0.96
|
|
000000000000,
|
|
#BPMCHANGE 131.81
|
|
#SCROLL 1.08
|
|
100000000000
|
|
#BPMCHANGE 144.22
|
|
#SCROLL 0.98
|
|
200000000000
|
|
#BPMCHANGE 143.48
|
|
#SCROLL 0.99
|
|
100000100000100000000000,
|
|
#BPMCHANGE 143.1
|
|
100000000000200000000000
|
|
#BPMCHANGE 144.99
|
|
#SCROLL 0.98
|
|
100000100000100000000000,
|
|
#BPMCHANGE 142.91
|
|
#SCROLL 0.99
|
|
100000000000200000000000
|
|
100000100000100000000000,
|
|
#BPMCHANGE 141.99
|
|
#SCROLL 1
|
|
500000000000000000000008
|
|
#BPMCHANGE 147.31
|
|
#SCROLL 0.96
|
|
000000000000
|
|
#BPMCHANGE 144.23
|
|
#SCROLL 0.98
|
|
000000000000,
|
|
#BPMCHANGE 140.55
|
|
#SCROLL 1.01
|
|
100000000000200000000000
|
|
#BPMCHANGE 143.1
|
|
#SCROLL 0.99
|
|
100000200000100000000000,
|
|
#BPMCHANGE 142.73
|
|
100000000000200000000000
|
|
#BPMCHANGE 143.48
|
|
100000200000100000000000,
|
|
#BPMCHANGE 141.27
|
|
#SCROLL 1
|
|
100000000000200000000000
|
|
#BPMCHANGE 145.37
|
|
#SCROLL 0.98
|
|
100000200000100000000000,
|
|
#BPMCHANGE 139.66
|
|
#SCROLL 1.02
|
|
700000000000000000000000
|
|
#BPMCHANGE 155.41
|
|
#SCROLL 0.91
|
|
000000000800000000000000,
|
|
#BPMCHANGE 144.98
|
|
#SCROLL 0.98
|
|
#GOGOSTART
|
|
300000000300000000300000
|
|
#BPMCHANGE 147.71
|
|
#SCROLL 0.96
|
|
000000000000000000000000,
|
|
#BPMCHANGE 150.53
|
|
#SCROLL 0.94
|
|
300000000300000000300000
|
|
#BPMCHANGE 153.46
|
|
#SCROLL 0.92
|
|
000000000000000000000000,
|
|
#BPMCHANGE 149.72
|
|
#SCROLL 0.95
|
|
300000000300000000300000
|
|
#BPMCHANGE 147.71
|
|
#SCROLL 0.96
|
|
000000000000000000000000,
|
|
#BPMCHANGE 149.6
|
|
#SCROLL 0.95
|
|
700000000000000000000000
|
|
#BPMCHANGE 154.44
|
|
#SCROLL 0.92
|
|
000000000000080000000000,
|
|
#BPMCHANGE 144.6
|
|
#SCROLL 0.98
|
|
300000000300000000300000
|
|
#BPMCHANGE 151.36
|
|
#SCROLL 0.94
|
|
000000000000000000000000,
|
|
#BPMCHANGE 151.77
|
|
#SCROLL 0.93
|
|
300000000300000000300000
|
|
#BPMCHANGE 160.53
|
|
#SCROLL 0.88
|
|
000000000000000000000000,
|
|
#BPMCHANGE 144.68
|
|
#SCROLL 0.98
|
|
300000000300000000300000
|
|
#BPMCHANGE 156.96
|
|
#SCROLL 0.9
|
|
000000000000000000000000,
|
|
#BPMCHANGE 145.18
|
|
#SCROLL 0.98
|
|
500000000000000000000008
|
|
#BPMCHANGE 155.64
|
|
#SCROLL 0.91
|
|
000000000000
|
|
#BPMCHANGE 159.69
|
|
#SCROLL 0.89
|
|
000000000000,
|
|
#BPMCHANGE 142.66
|
|
#SCROLL 0.99
|
|
#GOGOEND
|
|
400000000000000000000000
|
|
#BPMCHANGE 145.06
|
|
#SCROLL 0.98
|
|
000000000000000000000000,
|
|
#BPMCHANGE 143.1
|
|
#SCROLL 0.99
|
|
000000000000000000000000
|
|
#BPMCHANGE 147.31
|
|
#SCROLL 0.96
|
|
000000000000000000000000,
|
|
#BPMCHANGE 141.81
|
|
#SCROLL 1
|
|
000000000000000000000000
|
|
#BPMCHANGE 142.55
|
|
000000000000000000000000,
|
|
#BPMCHANGE 145.37
|
|
#SCROLL 0.98
|
|
000000000000000000000000
|
|
#BPMCHANGE 144.6
|
|
000000000000000000000000,
|
|
#BPMCHANGE 141.27
|
|
#SCROLL 1
|
|
100000000000100000100000
|
|
#BPMCHANGE 139.48
|
|
#SCROLL 1.02
|
|
000000200000000000000000,
|
|
#BPMCHANGE 144.41
|
|
#SCROLL 0.98
|
|
100000000000100000100000
|
|
000000000000000000000000,
|
|
#BPMCHANGE 140.37
|
|
#SCROLL 1.01
|
|
100000000000100000100000
|
|
000000200000000000000000,
|
|
#BPMCHANGE 145.75
|
|
#SCROLL 0.97
|
|
100000000000100000100000
|
|
000000000000000000000000,
|
|
#BPMCHANGE 141.63
|
|
#SCROLL 1
|
|
100000000000200000200000
|
|
#BPMCHANGE 142.37
|
|
000000100000100000000000,
|
|
#BPMCHANGE 142.7
|
|
#SCROLL 0.99
|
|
100000000000200000200000
|
|
000000000000000000000000,
|
|
#BPMCHANGE 145.04
|
|
#SCROLL 0.98
|
|
100000000000200000200000
|
|
#BPMCHANGE 140.19
|
|
#SCROLL 1.01
|
|
000000100000100000000000,
|
|
#BPMCHANGE 141.99
|
|
#SCROLL 1
|
|
100000000000200000200000
|
|
#BPMCHANGE 154.76
|
|
#SCROLL 0.92
|
|
000000000000000000000000,
|
|
#BPMCHANGE 154.52
|
|
#GOGOSTART
|
|
300000000300000000300000
|
|
#BPMCHANGE 150.44
|
|
#SCROLL 0.94
|
|
000000000000000000000000,
|
|
#BPMCHANGE 152.95
|
|
#SCROLL 0.93
|
|
300000000300000000300000
|
|
#BPMCHANGE 154.32
|
|
#SCROLL 0.92
|
|
000000000000000000000000,
|
|
#BPMCHANGE 150.73
|
|
#SCROLL 0.94
|
|
300000000300000000300000
|
|
#BPMCHANGE 149.26
|
|
#SCROLL 0.95
|
|
000000000000000000000000,
|
|
#BPMCHANGE 145.83
|
|
#SCROLL 0.97
|
|
700000000000000000000000
|
|
#BPMCHANGE 156.26
|
|
#SCROLL 0.91
|
|
000000000080000000000000,
|
|
#BPMCHANGE 152.61
|
|
#SCROLL 0.93
|
|
300000000300000000300000
|
|
#BPMCHANGE 150.95
|
|
#SCROLL 0.94
|
|
000000000000000000000000,
|
|
#BPMCHANGE 147.71
|
|
#SCROLL 0.96
|
|
300000000300000000300000
|
|
#BPMCHANGE 150.94
|
|
#SCROLL 0.94
|
|
000000000000000000000000,
|
|
#BPMCHANGE 145.75
|
|
#SCROLL 0.97
|
|
300000000300000000300000
|
|
#BPMCHANGE 148.1
|
|
#SCROLL 0.96
|
|
000000000000000000000000,
|
|
#BPMCHANGE 149.31
|
|
#SCROLL 0.95
|
|
500000000000000000000008
|
|
#BPMCHANGE 151.99
|
|
#SCROLL 0.93
|
|
000000000000000000000000,
|
|
#BPMCHANGE 179.94
|
|
#SCROLL 0.79
|
|
#GOGOEND
|
|
400000000000000000000000
|
|
#BPMCHANGE 187.5
|
|
#SCROLL 1.01
|
|
000000000000000000000000,
|
|
#BPMCHANGE 185.21
|
|
#SCROLL 1.02
|
|
000000000000000000000000
|
|
#BPMCHANGE 187.96
|
|
#SCROLL 1.01
|
|
000000000000000000000000,
|
|
#BPMCHANGE 189.83
|
|
#SCROLL 1
|
|
100000000000100000100000
|
|
#BPMCHANGE 188.43
|
|
000000000000200000000000,
|
|
#BPMCHANGE 189.36
|
|
100000000000100000100000
|
|
#BPMCHANGE 182.99
|
|
#SCROLL 1.03
|
|
000000000000200000000000,
|
|
#BPMCHANGE 186.99
|
|
#SCROLL 1.01
|
|
100000000000100000100000
|
|
#BPMCHANGE 189.41
|
|
#SCROLL 1
|
|
000000000000200000000000,
|
|
#BPMCHANGE 183.21
|
|
#SCROLL 1.03
|
|
100000000000100000100000
|
|
000000000000000000000000,
|
|
#BPMCHANGE 186.66
|
|
#SCROLL 1.01
|
|
100000000000100000100000
|
|
000000000000100000000000,
|
|
#BPMCHANGE 187.33
|
|
100000000000000000000000
|
|
#BPMCHANGE 188.89
|
|
#SCROLL 1
|
|
000000000000000000000000,
|
|
#BPMCHANGE 183.65
|
|
#SCROLL 1.03
|
|
100000000000100000100000
|
|
#BPMCHANGE 187.73
|
|
#SCROLL 1.01
|
|
000000000000200000000000,
|
|
#BPMCHANGE 189.36
|
|
#SCROLL 1
|
|
100000000000100000100000
|
|
#BPMCHANGE 184.38
|
|
#SCROLL 1.03
|
|
000000000000000000000000,
|
|
#BPMCHANGE 186.76
|
|
#SCROLL 1.01
|
|
100000000000100000100000000000000000100000000000,
|
|
#BPMCHANGE 189.98
|
|
#SCROLL 1
|
|
100000000000000000000000000000000000000000000000,
|
|
#BPMCHANGE 187.39
|
|
#SCROLL 1.01
|
|
100000000000000000100000000000000000100000000000,
|
|
#BPMCHANGE 188.36
|
|
#SCROLL 1
|
|
100000000000100000100000000000000000000000000000,
|
|
#BPMCHANGE 190.64
|
|
#SCROLL 0.99
|
|
100000000000000000100000000000100000100000000000,
|
|
#BPMCHANGE 190.97
|
|
100000000000000000000000000000000000000000000000,
|
|
100000000000000000100000000000000000100000000000,
|
|
#BPMCHANGE 191.8
|
|
100000000000100000100000000000000000000000000000,
|
|
#BPMCHANGE 192.8
|
|
#SCROLL 0.98
|
|
100000000000000000100000000000000000100000000000,
|
|
#BPMCHANGE 186.9
|
|
#SCROLL 1.01
|
|
700000000000000000000080
|
|
#BPMCHANGE 192.23
|
|
#SCROLL 0.98
|
|
000000000000000000000000,
|
|
#BPMCHANGE 195.19
|
|
#SCROLL 1.46
|
|
#GOGOSTART
|
|
300000000000300000000000
|
|
#BPMCHANGE 198.74
|
|
#SCROLL 1.43
|
|
300000000000300000000000,
|
|
#BPMCHANGE 199.03
|
|
300000000000300000000000300000000000300000000000,
|
|
#BPMCHANGE 196.24
|
|
#SCROLL 1.44
|
|
300000000000300000000000300000000000300000000000,
|
|
#BPMCHANGE 198.14
|
|
#SCROLL 1.43
|
|
400000000000000000000000
|
|
#BPMCHANGE 200.85
|
|
#SCROLL 1.41
|
|
000000000000000000000000,
|
|
#BPMCHANGE 196.2
|
|
#SCROLL 1.44
|
|
300000000000300000000000300000000000300000000000,
|
|
#BPMCHANGE 194.68
|
|
#SCROLL 1.46
|
|
300000000000300000000000300000000000300000000000,
|
|
#BPMCHANGE 197.47
|
|
#SCROLL 1.44
|
|
300000000000300000000000300000000000300000000000,
|
|
#BPMCHANGE 200.34
|
|
#SCROLL 1.41
|
|
400000000000000000000000
|
|
#BPMCHANGE 197.21
|
|
#SCROLL 1.44
|
|
000000000000000000000000,
|
|
#BPMCHANGE 108.44
|
|
#SCROLL 1.18
|
|
#GOGOEND
|
|
000000000000
|
|
#BPMCHANGE 123.58
|
|
#SCROLL 1.04
|
|
000000000000
|
|
#BPMCHANGE 144.17
|
|
#SCROLL 0.89
|
|
000000000000
|
|
#BPMCHANGE 134.5
|
|
#SCROLL 0.95
|
|
000000000000,
|
|
#BPMCHANGE 126.87
|
|
#SCROLL 1.01
|
|
000000000000
|
|
#BPMCHANGE 131.7
|
|
#SCROLL 0.97
|
|
000000000000
|
|
#BPMCHANGE 127.73
|
|
#SCROLL 1
|
|
100000100000
|
|
#BPMCHANGE 124.79
|
|
#SCROLL 1.03
|
|
100000000000,
|
|
#BPMCHANGE 127.72
|
|
#SCROLL 1
|
|
300000000000000000000000
|
|
#BPMCHANGE 129.46
|
|
#SCROLL 0.99
|
|
000000000000000000000000,
|
|
|
|
|
|
#END
|
|
|
|
|
|
COURSE:Easy
|
|
LEVEL:5
|
|
BALLOON:42,6,6,6,3
|
|
SCOREINIT:440
|
|
SCOREDIFF:125
|
|
|
|
|
|
#START
|
|
|
|
|
|
#SCROLL 1.15
|
|
000000000000000000000000
|
|
#BPMCHANGE 125.29
|
|
#SCROLL 1.13
|
|
000000000000000000000000,
|
|
#BPMCHANGE 128.57
|
|
#SCROLL 1.1
|
|
700000000000000000000000
|
|
#BPMCHANGE 131.18
|
|
#SCROLL 1.08
|
|
000000000000000000000000,
|
|
#BPMCHANGE 131.57
|
|
000000000000000000000000
|
|
#BPMCHANGE 131.96
|
|
000000000000000000000000,
|
|
#BPMCHANGE 131.49
|
|
000000000000000000000000
|
|
#BPMCHANGE 133.08
|
|
#SCROLL 1.07
|
|
000000000000000000000000,
|
|
#BPMCHANGE 133.89
|
|
#SCROLL 1.06
|
|
000000000000000000000000
|
|
#BPMCHANGE 128.72
|
|
#SCROLL 1.1
|
|
000000000000000008000000,
|
|
#BPMCHANGE 130.56
|
|
#SCROLL 1.09
|
|
100000000000000000000000
|
|
#BPMCHANGE 132.44
|
|
#SCROLL 1.07
|
|
200000000000000000000000,
|
|
#BPMCHANGE 130.09
|
|
#SCROLL 1.09
|
|
100000000000000000000000
|
|
#BPMCHANGE 133.12
|
|
#SCROLL 1.07
|
|
200000000000000000000000,
|
|
#BPMCHANGE 132.08
|
|
100000000000000000000000
|
|
#BPMCHANGE 130.71
|
|
#SCROLL 1.09
|
|
200000000000000000000000,
|
|
#BPMCHANGE 136.04
|
|
#SCROLL 1.04
|
|
100000000000000000000000
|
|
#BPMCHANGE 135.87
|
|
000000000000000000000000,
|
|
#BPMCHANGE 132.6
|
|
#SCROLL 1.07
|
|
100000000000100000000000
|
|
#BPMCHANGE 135.7
|
|
#SCROLL 1.05
|
|
100000000000000000000000,
|
|
#BPMCHANGE 133.4
|
|
#SCROLL 1.06
|
|
100000000000100000000000
|
|
#BPMCHANGE 135.7
|
|
#SCROLL 1.05
|
|
100000000000000000000000,
|
|
#BPMCHANGE 134.21
|
|
#SCROLL 1.06
|
|
100000000000100000000000
|
|
#BPMCHANGE 135.7
|
|
#SCROLL 1.05
|
|
100000000000000000000000,
|
|
#BPMCHANGE 133.56
|
|
#SCROLL 1.06
|
|
100000000000100000000000
|
|
#BPMCHANGE 137.05
|
|
#SCROLL 1.04
|
|
100000000000000000000000,
|
|
#BPMCHANGE 133.08
|
|
#SCROLL 1.07
|
|
300000000000000000300000
|
|
#BPMCHANGE 136.37
|
|
#SCROLL 1.04
|
|
000000000000000000000000,
|
|
#BPMCHANGE 133.72
|
|
#SCROLL 1.06
|
|
100000000000000000100000
|
|
#BPMCHANGE 135.37
|
|
#SCROLL 1.05
|
|
000000000000000000000000,
|
|
#BPMCHANGE 133.24
|
|
#SCROLL 1.07
|
|
300000000000000000300000
|
|
#BPMCHANGE 136.71
|
|
#SCROLL 1.04
|
|
000000000000000000000000,
|
|
#BPMCHANGE 136.54
|
|
100000000000000000100000
|
|
#BPMCHANGE 147.9
|
|
#SCROLL 0.96
|
|
000000000000
|
|
#BPMCHANGE 141.45
|
|
#SCROLL 1
|
|
000000000000,
|
|
#BPMCHANGE 128.12
|
|
#SCROLL 1.11
|
|
300000000000
|
|
#BPMCHANGE 139.12
|
|
#SCROLL 1.02
|
|
000000000000
|
|
#BPMCHANGE 145.37
|
|
#SCROLL 0.98
|
|
100000000000
|
|
#BPMCHANGE 141.63
|
|
#SCROLL 1
|
|
100000000000,
|
|
#BPMCHANGE 143.66
|
|
#SCROLL 0.99
|
|
100000000000000000000000
|
|
#BPMCHANGE 148.3
|
|
#SCROLL 0.96
|
|
100000000000100000000000,
|
|
#BPMCHANGE 141.36
|
|
#SCROLL 1
|
|
100000000000000000000000
|
|
100000000000100000000000,
|
|
#BPMCHANGE 147.51
|
|
#SCROLL 0.96
|
|
100000000000000000000000
|
|
#BPMCHANGE 141.63
|
|
#SCROLL 1
|
|
100000000000100000000000,
|
|
#BPMCHANGE 141.81
|
|
300000000000000000000000
|
|
#BPMCHANGE 142.55
|
|
100000000000100000000000,
|
|
#BPMCHANGE 142.91
|
|
#SCROLL 0.99
|
|
100000000000000000000000
|
|
100000000000100000000000,
|
|
#BPMCHANGE 142.18
|
|
#SCROLL 1
|
|
100000000000000000000000
|
|
100000000000100000000000,
|
|
#BPMCHANGE 143.57
|
|
#SCROLL 0.99
|
|
500000000000000000000008
|
|
#BPMCHANGE 142.18
|
|
#SCROLL 1
|
|
000000000000
|
|
#BPMCHANGE 147.71
|
|
#SCROLL 0.96
|
|
000000000000,
|
|
#BPMCHANGE 138.43
|
|
#SCROLL 1.03
|
|
300000000000000000000000
|
|
#BPMCHANGE 144.23
|
|
#SCROLL 0.98
|
|
200000000000100000000000,
|
|
#BPMCHANGE 144.6
|
|
100000000000000000000000
|
|
200000000000100000000000,
|
|
#BPMCHANGE 140.91
|
|
#SCROLL 1.01
|
|
100000000000000000000000
|
|
#BPMCHANGE 144.61
|
|
#SCROLL 0.98
|
|
200000000000100000000000,
|
|
#BPMCHANGE 143.1
|
|
#SCROLL 0.99
|
|
500000000000000000000008
|
|
#BPMCHANGE 144.23
|
|
#SCROLL 0.98
|
|
000000000000
|
|
#BPMCHANGE 148.1
|
|
#SCROLL 0.96
|
|
000000000000,
|
|
#BPMCHANGE 131.81
|
|
#SCROLL 1.08
|
|
300000000000
|
|
#BPMCHANGE 144.22
|
|
#SCROLL 0.98
|
|
000000000000
|
|
#BPMCHANGE 143.48
|
|
#SCROLL 0.99
|
|
100000000000200000000000,
|
|
#BPMCHANGE 143.1
|
|
100000000000000000000000
|
|
#BPMCHANGE 144.99
|
|
#SCROLL 0.98
|
|
100000000000200000000000,
|
|
#BPMCHANGE 142.91
|
|
#SCROLL 0.99
|
|
100000000000000000000000
|
|
100000000000200000000000,
|
|
#BPMCHANGE 141.99
|
|
#SCROLL 1
|
|
500000000000000000000008
|
|
#BPMCHANGE 147.31
|
|
#SCROLL 0.96
|
|
000000000000
|
|
#BPMCHANGE 144.23
|
|
#SCROLL 0.98
|
|
000000000000,
|
|
#BPMCHANGE 140.55
|
|
#SCROLL 1.01
|
|
300000000000000000000000
|
|
#BPMCHANGE 143.1
|
|
#SCROLL 0.99
|
|
200000000000200000000000,
|
|
#BPMCHANGE 142.73
|
|
100000000000000000000000
|
|
#BPMCHANGE 143.48
|
|
200000000000200000000000,
|
|
#BPMCHANGE 141.27
|
|
#SCROLL 1
|
|
100000000000000000000000
|
|
#BPMCHANGE 145.37
|
|
#SCROLL 0.98
|
|
200000000000200000000000,
|
|
#BPMCHANGE 139.66
|
|
#SCROLL 1.02
|
|
700000000000000000000000
|
|
#BPMCHANGE 155.41
|
|
#SCROLL 0.91
|
|
000000000800000000000000,
|
|
#BPMCHANGE 144.98
|
|
#SCROLL 0.98
|
|
#GOGOSTART
|
|
300000000300000000300000
|
|
#BPMCHANGE 147.71
|
|
#SCROLL 0.96
|
|
000000000000000000000000,
|
|
#BPMCHANGE 150.53
|
|
#SCROLL 0.94
|
|
300000000300000000300000
|
|
#BPMCHANGE 153.46
|
|
#SCROLL 0.92
|
|
000000000000000000000000,
|
|
#BPMCHANGE 149.72
|
|
#SCROLL 0.95
|
|
300000000300000000300000
|
|
#BPMCHANGE 147.71
|
|
#SCROLL 0.96
|
|
000000000000000000000000,
|
|
#BPMCHANGE 149.6
|
|
#SCROLL 0.95
|
|
700000000000000000000000
|
|
#BPMCHANGE 154.44
|
|
#SCROLL 0.92
|
|
000000000000080000000000,
|
|
#BPMCHANGE 144.6
|
|
#SCROLL 0.98
|
|
300000000300000000300000
|
|
#BPMCHANGE 151.36
|
|
#SCROLL 0.94
|
|
000000000000000000000000,
|
|
#BPMCHANGE 151.77
|
|
#SCROLL 0.93
|
|
300000000300000000300000
|
|
#BPMCHANGE 160.53
|
|
#SCROLL 0.88
|
|
000000000000000000000000,
|
|
#BPMCHANGE 144.68
|
|
#SCROLL 0.98
|
|
300000000300000000300000
|
|
#BPMCHANGE 156.96
|
|
#SCROLL 0.9
|
|
000000000000000000000000,
|
|
#BPMCHANGE 145.18
|
|
#SCROLL 0.98
|
|
500000000000000000000008
|
|
#BPMCHANGE 155.64
|
|
#SCROLL 0.91
|
|
000000000000
|
|
#BPMCHANGE 159.69
|
|
#SCROLL 0.89
|
|
000000000000,
|
|
#BPMCHANGE 142.66
|
|
#SCROLL 0.99
|
|
#GOGOEND
|
|
400000000000000000000000
|
|
#BPMCHANGE 145.06
|
|
#SCROLL 0.98
|
|
000000000000000000000000,
|
|
#BPMCHANGE 143.1
|
|
#SCROLL 0.99
|
|
000000000000000000000000
|
|
#BPMCHANGE 147.31
|
|
#SCROLL 0.96
|
|
000000000000000000000000,
|
|
#BPMCHANGE 141.81
|
|
#SCROLL 1
|
|
000000000000000000000000
|
|
#BPMCHANGE 142.55
|
|
000000000000000000000000,
|
|
#BPMCHANGE 145.37
|
|
#SCROLL 0.98
|
|
000000000000000000000000
|
|
#BPMCHANGE 144.6
|
|
000000000000000000000000,
|
|
#BPMCHANGE 141.27
|
|
#SCROLL 1
|
|
100000000000100000100000
|
|
#BPMCHANGE 139.48
|
|
#SCROLL 1.02
|
|
000000000000000000000000,
|
|
#BPMCHANGE 144.41
|
|
#SCROLL 0.98
|
|
100000000000100000100000
|
|
000000000000000000000000,
|
|
#BPMCHANGE 140.37
|
|
#SCROLL 1.01
|
|
100000000000100000100000
|
|
000000000000000000000000,
|
|
#BPMCHANGE 145.75
|
|
#SCROLL 0.97
|
|
100000000000100000100000
|
|
000000000000000000000000,
|
|
#BPMCHANGE 141.63
|
|
#SCROLL 1
|
|
100000000000200000000000
|
|
#BPMCHANGE 142.37
|
|
000000000000100000000000,
|
|
#BPMCHANGE 142.7
|
|
#SCROLL 0.99
|
|
100000000000200000000000
|
|
000000000000100000000000,
|
|
#BPMCHANGE 145.04
|
|
#SCROLL 0.98
|
|
100000000000200000000000
|
|
#BPMCHANGE 140.19
|
|
#SCROLL 1.01
|
|
000000000000100000000000,
|
|
#BPMCHANGE 141.99
|
|
#SCROLL 1
|
|
100000000000200000000000
|
|
#BPMCHANGE 154.76
|
|
#SCROLL 0.92
|
|
000000000000000000000000,
|
|
#BPMCHANGE 154.52
|
|
#GOGOSTART
|
|
300000000300000000300000
|
|
#BPMCHANGE 150.44
|
|
#SCROLL 0.94
|
|
000000000000000000000000,
|
|
#BPMCHANGE 152.95
|
|
#SCROLL 0.93
|
|
300000000300000000300000
|
|
#BPMCHANGE 154.32
|
|
#SCROLL 0.92
|
|
000000000000000000000000,
|
|
#BPMCHANGE 150.73
|
|
#SCROLL 0.94
|
|
300000000300000000300000
|
|
#BPMCHANGE 149.26
|
|
#SCROLL 0.95
|
|
000000000000000000000000,
|
|
#BPMCHANGE 145.83
|
|
#SCROLL 0.97
|
|
700000000000000000000000
|
|
#BPMCHANGE 156.26
|
|
#SCROLL 0.91
|
|
000000000080000000000000,
|
|
#BPMCHANGE 152.61
|
|
#SCROLL 0.93
|
|
300000000300000000300000
|
|
#BPMCHANGE 150.95
|
|
#SCROLL 0.94
|
|
000000000000000000000000,
|
|
#BPMCHANGE 147.71
|
|
#SCROLL 0.96
|
|
300000000300000000300000
|
|
#BPMCHANGE 150.94
|
|
#SCROLL 0.94
|
|
000000000000000000000000,
|
|
#BPMCHANGE 145.75
|
|
#SCROLL 0.97
|
|
300000000300000000300000
|
|
#BPMCHANGE 148.1
|
|
#SCROLL 0.96
|
|
000000000000000000000000,
|
|
#BPMCHANGE 149.31
|
|
#SCROLL 0.95
|
|
500000000000000000000008
|
|
#BPMCHANGE 151.99
|
|
#SCROLL 0.93
|
|
000000000000000000000000,
|
|
#BPMCHANGE 179.94
|
|
#SCROLL 0.79
|
|
#GOGOEND
|
|
400000000000000000000000
|
|
#BPMCHANGE 187.5
|
|
#SCROLL 1.01
|
|
000000000000000000000000,
|
|
#BPMCHANGE 185.21
|
|
#SCROLL 1.02
|
|
000000000000000000000000
|
|
#BPMCHANGE 187.96
|
|
#SCROLL 1.01
|
|
000000000000000000000000,
|
|
#BPMCHANGE 189.83
|
|
#SCROLL 1
|
|
100000000000100000000000
|
|
#BPMCHANGE 188.43
|
|
000000000000100000000000,
|
|
#BPMCHANGE 189.36
|
|
100000000000100000000000
|
|
#BPMCHANGE 182.99
|
|
#SCROLL 1.03
|
|
000000000000100000000000,
|
|
#BPMCHANGE 186.99
|
|
#SCROLL 1.01
|
|
100000000000100000000000
|
|
#BPMCHANGE 189.41
|
|
#SCROLL 1
|
|
000000000000100000000000,
|
|
#BPMCHANGE 183.21
|
|
#SCROLL 1.03
|
|
100000000000100000000000
|
|
000000000000000000000000,
|
|
#BPMCHANGE 186.66
|
|
#SCROLL 1.01
|
|
100000000000100000000000
|
|
000000000000100000000000,
|
|
#BPMCHANGE 187.33
|
|
100000000000000000000000
|
|
#BPMCHANGE 188.89
|
|
#SCROLL 1
|
|
000000000000000000000000,
|
|
#BPMCHANGE 183.65
|
|
#SCROLL 1.03
|
|
100000000000100000000000
|
|
#BPMCHANGE 187.73
|
|
#SCROLL 1.01
|
|
000000000000100000000000,
|
|
#BPMCHANGE 189.36
|
|
#SCROLL 1
|
|
100000000000100000000000
|
|
#BPMCHANGE 184.38
|
|
#SCROLL 1.03
|
|
000000000000000000000000,
|
|
#BPMCHANGE 186.76
|
|
#SCROLL 1.01
|
|
100000000000100000000000000000000000100000000000,
|
|
#BPMCHANGE 189.98
|
|
#SCROLL 1
|
|
100000000000000000000000000000000000000000000000,
|
|
#BPMCHANGE 187.39
|
|
#SCROLL 1.01
|
|
100000000000100000000000000000000000100000000000,
|
|
#BPMCHANGE 188.36
|
|
#SCROLL 1
|
|
100000000000100000000000000000000000000000000000,
|
|
#BPMCHANGE 190.64
|
|
#SCROLL 0.99
|
|
100000000000200000000000100000000000200000000000,
|
|
#BPMCHANGE 190.97
|
|
100000000000000000000000000000000000000000000000,
|
|
100000000000100000000000000000000000100000000000,
|
|
#BPMCHANGE 191.8
|
|
100000000000100000000000000000000000000000000000,
|
|
#BPMCHANGE 192.8
|
|
#SCROLL 0.98
|
|
100000000000200000000000100000000000200000000000,
|
|
#BPMCHANGE 186.9
|
|
#SCROLL 1.01
|
|
700000000000000000000080
|
|
#BPMCHANGE 192.23
|
|
#SCROLL 0.98
|
|
000000000000000000000000,
|
|
#BPMCHANGE 195.19
|
|
#SCROLL 1.46
|
|
#GOGOSTART
|
|
300000000000000000000000
|
|
#BPMCHANGE 198.74
|
|
#SCROLL 1.43
|
|
300000000000000000000000,
|
|
#BPMCHANGE 199.03
|
|
300000000000000000000000300000000000300000000000,
|
|
#BPMCHANGE 196.24
|
|
#SCROLL 1.44
|
|
300000000000000000000000300000000000000000000000,
|
|
#BPMCHANGE 198.14
|
|
#SCROLL 1.43
|
|
300000000000000000000000
|
|
#BPMCHANGE 200.85
|
|
#SCROLL 1.41
|
|
000000000000000000000000,
|
|
#BPMCHANGE 196.2
|
|
#SCROLL 1.44
|
|
300000000000000000000000300000000000000000000000,
|
|
#BPMCHANGE 194.68
|
|
#SCROLL 1.46
|
|
300000000000000000000000300000000000300000000000,
|
|
#BPMCHANGE 197.47
|
|
#SCROLL 1.44
|
|
300000000000000000000000300000000000000000000000,
|
|
#BPMCHANGE 200.34
|
|
#SCROLL 1.41
|
|
300000000000000000000000
|
|
#BPMCHANGE 197.21
|
|
#SCROLL 1.44
|
|
000000000000000000000000,
|
|
#BPMCHANGE 108.44
|
|
#SCROLL 1.18
|
|
#GOGOEND
|
|
000000000000
|
|
#BPMCHANGE 123.58
|
|
#SCROLL 1.04
|
|
000000000000
|
|
#BPMCHANGE 144.17
|
|
#SCROLL 0.89
|
|
000000000000
|
|
#BPMCHANGE 134.5
|
|
#SCROLL 0.95
|
|
000000000000,
|
|
#BPMCHANGE 126.87
|
|
#SCROLL 1.01
|
|
000000000000
|
|
#BPMCHANGE 131.7
|
|
#SCROLL 0.97
|
|
000000000000
|
|
#BPMCHANGE 127.73
|
|
#SCROLL 1
|
|
100000000000
|
|
#BPMCHANGE 124.79
|
|
#SCROLL 1.03
|
|
100000000000,
|
|
#BPMCHANGE 127.72
|
|
#SCROLL 1
|
|
300000000000000000000000
|
|
#BPMCHANGE 129.46
|
|
#SCROLL 0.99
|
|
000000000000000000000000,
|
|
|
|
|
|
#END
|
|
|