Files
ESE/01 Pop/travelling/travelling.tja
T
2023-06-15 19:05:10 -05:00

401 lines
16 KiB
Plaintext

//TJADB Project
TITLE:travelling
TITLEJA:traveling
SUBTITLE:--Hikaru Utada/FOMA
BPM:117.016
WAVE:travelling.ogg
OFFSET:-8.516
DEMOSTART:65.938
COURSE:Oni
LEVEL:8
BALLOON:5,5,5,5
#START
000000000000100000000000000000100000200000000000,
000000000000100000000000000000100000200000000000,
000000000000100000000000000000100000200000000000,
000000000000100000000000000000100000300000000000,
000000100000100000000000000000100000100000000000,
000000100000100000000000000000100000200000000000,
000000100000100000000000000000100000100000000000,
000000100000100000000000100100200200100000000000,
000000100000100000000000000000100000100000000000,
000000100000100000000000000000100000200000000000,
000000100000100000000000000000100000100000000000,
000000100000100000000000100100200200200000000000,
100000200000000000200000100100200200100100200000,
100000200000000000200000100100200200100100100000,
100000200000000000200000100100200200100100200000,
100000200000000000200000100100200200100100100000,
100000200000100000200000100100200200100100200000,
100000200000100000200000100100200200100100100000,
100000200000100000200000100100200200100100200000,
100000200000100000200000100000200000300000000000,
100000200000100100200000100100200200100100200000,
100000200000100100200000100100200200100100100000,
100000200000100100200000100100200200100100200000,
100000200000100100200000100100200200100100100000,
100100200000100100200000100100200200100100200000,
100100200000100100200000100100200200100100100000,
100100200000100100200000100100200200100100200000,
100100200000100100200000100100200000300000000000,
000000100000100000100000000000200000200000200000,
000000100000100000100000000000200200100100100000,
000000100000100000100000000000200000200000200000,
000000100000100000100000000000200200200200200000,
000000100000100000100000000000200000200000200000,
000000100000100000100000000000200200100100100000,
000000100000100000100000000000200000200000200000,
000000100000100000100000200200100100200200100100,
500000000000000000000008000000100100100000100000,
500000000000000000000008000000200200200000200000,
000000100100000000100100000000100100100000100000,
000000100100000000100100000000200200200000200000,
700000000000000000000000800000100100100000100000,
700000000000000000000000800000200200200000200000,
000000100100000000100100000000100100100000100000,
000000100100000000100100000000200200200000200000,
500000000000000000000008000000100100100000100000,
500000000000000000000008000000200200200000200000,
000000100100000000100100000000100100100000100000,
000000100100000000100100000000200200200000200000,
700000000000000000000000800000100100100000100000,
700000000000000000000000800000200200200000200000,
000000100100000000100100000000100100100000100000,
000000100100000000100100000000200200200000200000,
300000000000000000000000000000000000000000000000,
#END
COURSE:Hard
LEVEL:5
BALLOON:5,5,5,5
SCOREINIT:610
SCOREDIFF:140
#START
000000000000100000000000000000100000200000000000,
000000000000100000000000000000100000200000000000,
000000000000100000000000000000100000200000000000,
000000000000100000000000000000100000300000000000,
000000100000100000000000000000100000100000000000,
000000100000100000000000000000100000200000000000,
000000100000100000000000000000100000100000000000,
000000100000100000000000100100200200100000000000,
000000100000100000000000000000100000100000000000,
000000100000100000000000000000100000200000000000,
000000100000100000000000000000100000100000000000,
000000100000100000000000100100200200200000000000,
100000200000000000200000100100200200100100200000,
100000200000000000200000100100200200100100100000,
100000200000000000200000100100200200100100200000,
100000200000000000200000100100200200100100100000,
100000200000100000200000100100200200100100200000,
100000200000100000200000100100200200100100100000,
100000200000100000200000100100200200100100200000,
100000200000100000200000100000200000300000000000,
100000200000100100200000100100200200100100200000,
100000200000100100200000100100200200100100100000,
100000200000100100200000100100200200100100200000,
100000200000100100200000100100200200100100100000,
100100200000100100200000100100200200100100200000,
100100200000100100200000100100200200100100100000,
100100200000100100200000100100200200100100200000,
100100200000100100200000100100200000300000000000,
000000100000100000100000000000200000200000200000,
000000100000100000100000000000200200100100100000,
000000100000100000100000000000200000200000200000,
000000100000100000100000000000200200200200200000,
000000100000100000100000000000200000200000200000,
000000100000100000100000000000200200100100100000,
000000100000100000100000000000200000200000200000,
000000100000100000100000200200100100200200100100,
500000000000000000000008000000100100100000100000,
500000000000000000000008000000200200200000200000,
000000100100000000100100000000100100100000100000,
000000100100000000100100000000200200200000200000,
700000000000000000000000800000100100100000100000,
700000000000000000000000800000200200200000200000,
000000100100000000100100000000100100100000100000,
000000100100000000100100000000200200200000200000,
500000000000000000000008000000100100100000100000,
500000000000000000000008000000200200200000200000,
000000100100000000100100000000100100100000100000,
000000100100000000100100000000200200200000200000,
700000000000000000000000800000100100100000100000,
700000000000000000000000800000200200200000200000,
000000100100000000100100000000100100100000100000,
000000100100000000100100000000200200200000200000,
300000000000000000000000000000000000000000000000,
#END
COURSE:Normal
LEVEL:3
STYLE:Double
BALLOON:10,5,5
SCOREINIT:1090
SCOREDIFF:320
#START P1
000000000000100000000000000000100000200000000000,
000000000000100000000000000000100000200000000000,
000000000000100000000000000000100000200000000000,
000000000000100000000000000000100000300000000000,
000000100000100000000000000000100000100000000000,
000000100000100000000000000000100000200000000000,
000000100000100000000000000000100000100000000000,
000000100000100000000000000000200000200000000000,
000000100000100000000000000000100000100000000000,
000000100000100000000000000000100000200000000000,
000000100000100000000000000000100000100000000000,
000000100000100000000000000000200000200000000000,
100000000000100000000000000000100000100000000000,
100000100000100000000000000000100000200000000000,
500000000000000000800000000000000000000000000000,
100000000000100000000000100000000000200000000000,
100000000000100000000000000000100000100000000000,
100000100000100000000000000000100000200000000000,
500000000000000000800000000000000000000000000000,
100000000000000000000000000000200000200000000000,
100000000000100000000000000000100000100000000000,
100000100000100000000000000000100000200000000000,
500000000000000000800000000000000000000000000000,
100000000000100000000000100000000000200000000000,
100000000000100000000000000000100000100000000000,
100000100000100000000000000000100000200000000000,
700000000000000000000000000000800000000000000000,
500000000000000000800000000000200000200000000000,
000000100000100000100000000000200000200000200000,
000000100000100000100000000000200000200000200000,
000000100000100000100000000000200000200000200000,
000000100000100000100000000000200000200000200000,
01110222,
01110222,
01110222,
01110222,
500000000000000000800000000000000000000000000000,
500000000000000000800000000000000000000000000000,
100000000000000000100000100000000000100000000000,
100000000000000000100000300000000000000000000000,
700000000000000000800000000000000000000000000000,
700000000000000000800000000000000000000000000000,
100000000000000000100000100000000000100000000000,
100000000000000000100000100000000000000000000000,
500000000000000000800000000000000000000000000000,
500000000000000000800000000000000000000000000000,
100000000000000000100000100000000000100000000000,
100000000000000000100000300000000000000000000000,
600000000000000000800000000000000000000000000000,
600000000000000000800000000000000000000000000000,
100000000000000000100000100000000000100000000000,
100000000000000000100000300000000000000000000000,
#END
#START P2
000000000000100000000000000000100000200000000000,
000000000000100000000000000000100000200000000000,
000000000000100000000000000000100000200000000000,
000000000000100000000000000000100000300000000000,
000000100000100000000000000000100000100000000000,
000000100000100000000000000000100000200000000000,
000000100000100000000000000000100000100000000000,
000000100000100000000000000000200000200000000000,
000000100000100000000000000000100000100000000000,
000000100000100000000000000000100000200000000000,
000000100000100000000000000000100000100000000000,
000000100000100000000000000000200000200000000000,
100000000000100000000000000000100000100000000000,
100000100000100000000000000000100000200000000000,
500000000000000000800000000000000000000000000000,
100000000000100000000000100000000000200000000000,
100000000000100000000000000000100000100000000000,
100000100000100000000000000000100000200000000000,
500000000000000000800000000000000000000000000000,
100000000000000000000000000000200000200000000000,
100000000000100000000000000000100000100000000000,
100000100000100000000000000000100000200000000000,
500000000000000000800000000000000000000000000000,
100000000000100000000000100000000000200000000000,
100000000000100000000000000000100000100000000000,
100000100000100000000000000000100000200000000000,
700000000000000000000000000000800000000000000000,
500000000000000000800000000000200000200000000000,
000000100000100000100000000000200000200000200000,
000000100000100000100000000000200000200000200000,
000000100000100000100000000000200000200000200000,
000000100000100000100000000000200000200000200000,
02220111,
02220111,
02220111,
02220111,
500000000000000000800000000000000000000000000000,
500000000000000000800000000000000000000000000000,
100000000000000000100000100000000000100000000000,
100000000000000000100000300000000000000000000000,
700000000000000000800000000000000000000000000000,
700000000000000000800000000000000000000000000000,
100000000000000000100000100000000000100000000000,
100000000000000000100000100000000000000000000000,
500000000000000000800000000000000000000000000000,
500000000000000000800000000000000000000000000000,
100000000000000000100000100000000000100000000000,
100000000000000000100000300000000000000000000000,
600000000000000000800000000000000000000000000000,
600000000000000000800000000000000000000000000000,
100000000000000000100000100000000000100000000000,
100000000000000000100000300000000000000000000000,
#END
COURSE:Easy
LEVEL:4
STYLE:Double
BALLOON:10,5,5,5,5
SCOREINIT:910
SCOREDIFF:270
#START P1
000000000000100000000000000000100000200000000000,
000000000000100000000000000000100000200000000000,
000000000000100000000000000000100000200000000000,
000000000000100000000000000000100000300000000000,
000000100000100000000000000000100000100000000000,
000000100000100000000000000000100000200000000000,
000000100000100000000000000000100000100000000000,
000000100000100000000000000000200000200000000000,
000000100000100000000000000000100000100000000000,
000000100000100000000000000000100000200000000000,
000000100000100000000000000000100000100000000000,
000000100000100000000000000000200000200000000000,
100000000000100000000000000000000000100000000000,
100000100000100000000000000000000000200000000000,
500000000000000000800000000000000000000000000000,
100000000000100000000000100000000000200000000000,
100000000000100000000000000000000000100000000000,
100000100000100000000000000000000000200000000000,
500000000000000000800000000000000000000000000000,
100000000000000000000000000000200000200000000000,
100000000000100000000000000000000000100000000000,
100000100000100000000000000000000000200000000000,
500000000000000000800000000000000000000000000000,
100000000000100000000000100000000000200000000000,
100000000000100000000000000000000000100000000000,
100000100000100000000000000000000000200000000000,
700000000000000000000000000000800000000000000000,
100000000000000000000000000000200000200000000000,
000000100000100000100000000000200000200000200000,
000000100000100000100000000000200000200000200000,
000000100000100000100000000000200000200000200000,
000000100000100000100000000000200000200000200000,
01110222,
01110222,
01110222,
01110222,
500000000000000000800000000000000000000000000000,
500000000000000000800000000000000000000000000000,
100000000000000000000000100000100000100000100000,
100000000000000000000000300000000000000000000000,
700000000000000000800000000000000000000000000000,
700000000000000000800000000000000000000000000000,
100000000000000000000000100000100000100000100000,
100000000000200000000000100000000000000000000000,
500000000000000000800000000000000000000000000000,
500000000000000000800000000000000000000000000000,
100000000000000000000000100000100000100000100000,
100000000000000000000000400000000000000000000000,
700000000000000000800000000000000000000000000000,
700000000000000000800000000000000000000000000000,
100000000000000000000000100000100000100000100000,
100000000000100000000000300000000000000000000000,
#END
#START P2
000000000000100000000000000000100000200000000000,
000000000000100000000000000000100000200000000000,
000000000000100000000000000000100000200000000000,
000000000000100000000000000000100000300000000000,
000000100000100000000000000000100000100000000000,
000000100000100000000000000000100000200000000000,
000000100000100000000000000000100000100000000000,
000000100000100000000000000000200000200000000000,
000000100000100000000000000000100000100000000000,
000000100000100000000000000000100000200000000000,
000000100000100000000000000000100000100000000000,
000000100000100000000000000000200000200000000000,
100000000000100000000000000000000000100000000000,
100000100000100000000000000000000000200000000000,
500000000000000000800000000000000000000000000000,
100000000000100000000000100000000000200000000000,
100000000000100000000000000000000000100000000000,
100000100000100000000000000000000000200000000000,
500000000000000000800000000000000000000000000000,
100000000000000000000000000000200000200000000000,
100000000000100000000000000000000000100000000000,
100000100000100000000000000000000000200000000000,
500000000000000000800000000000000000000000000000,
100000000000100000000000100000000000200000000000,
100000000000100000000000000000000000100000000000,
100000100000100000000000000000000000200000000000,
700000000000000000000000000000800000000000000000,
100000000000000000000000000000200000200000000000,
000000100000100000100000000000200000200000200000,
000000100000100000100000000000200000200000200000,
000000100000100000100000000000200000200000200000,
000000100000100000100000000000200000200000200000,
02220111,
02220111,
02220111,
02220111,
500000000000000000800000000000000000000000000000,
500000000000000000800000000000000000000000000000,
100000000000000000000000100000100000100000100000,
100000000000000000000000300000000000000000000000,
700000000000000000800000000000000000000000000000,
700000000000000000800000000000000000000000000000,
100000000000000000000000100000100000100000100000,
100000000000200000000000100000000000000000000000,
500000000000000000800000000000000000000000000000,
500000000000000000800000000000000000000000000000,
100000000000000000000000100000100000100000100000,
100000000000000000000000400000000000000000000000,
700000000000000000800000000000000000000000000000,
700000000000000000800000000000000000000000000000,
100000000000000000000000100000100000100000100000,
100000000000100000000000300000000000000000000000,
#END