Files
ESE/04 Children and Folk/Ba Luo Buo/Ba Luo Buo.tja
T

59 lines
1.9 KiB
Plaintext

//TJADB Project
TITLE:Ba Luo Buo
TITLEZH:拔蘿蔔
SUBTITLE:--Alexander Afanasyev
BPM:105
WAVE:Ba Luo Buo.ogg
OFFSET:-2.502
DEMOSTART:11.632
COURSE:Oni
LEVEL:5
SCOREINIT:1060
#START
100000200100000200000100000100200000100000000000,
100000100200000100000200000200100000200000200000,
100000200100000200000100000100200000100000000000,
100000100200000100000200000000100000200000100100,
100000100000200000000000200000100000100000000000,
400000000000400000000000400000400000300000000000,
300000000000300000000000300000300000400000000000,
100000100100100000000000100000100100100000000000,
100000100100100000100000100000000000200000000000,
500000000000000000000000000008000000000000000000,
100000200100000200000100000100200000100000000000,
100000200100000000000000200000100000200000100000,
100000200100000200000100000100200000100000000000,
100000200100000000000000200000100000200000100000,
100000200100000200000100000100200000100000000000,
100000200100000000000000400000300000400000300000,
100000200100000200000100000100200000100000000000,
100000200100000000000000400000300000400000300000,
#GOGOSTART
100000100000200000000000200000100000100000000000,
400000300000400000300000400000400000300000000000,
300000400000300000400000300000300000400000000000,
100000100100100000000000100000100100100000000000,
100000100100100000100000100000000000200000000000,
500000000000000000000000000008000000000000000000,
#GOGOEND
100000200100000200000100000100200000100000000000,
100000200100000000000000200000100000200000100000,
100000200100000200000100000100200000100000000000,
100000200100000000000000200000100000200000100000,
100000200100000200000100000100200000100000000000,
100000200100000000000000400000300000400000300000,
100000200100000200000100000100200000100000000000,
100000200100000000000000400000300000400000300000,
100000000000200000000300000000000000000000000000,
#END