719 lines
7.5 KiB
Plaintext
719 lines
7.5 KiB
Plaintext
//TJADB Project
|
|
TITLE:Angel Dream
|
|
TITLEJA:エンジェル ドリーム
|
|
SUBTITLE:--Keiichi Okabe feat. Youko Takamitsu
|
|
BPM:180
|
|
WAVE:Angel Dream.ogg
|
|
OFFSET:-1.603
|
|
DEMOSTART:56.272
|
|
|
|
COURSE:Edit
|
|
LEVEL:9
|
|
SCOREINIT:310
|
|
SCOREDIFF:80
|
|
|
|
|
|
#START
|
|
|
|
|
|
2220222022202222,
|
|
1,
|
|
0022222022222022,
|
|
1,
|
|
0022122012221022,
|
|
1022102010201020,
|
|
1022122011221022,
|
|
1022102010102010,
|
|
03333040,
|
|
1022102010221020,
|
|
1020102210222020,
|
|
1022102010221020,
|
|
1020102210221010,
|
|
1022102010221020,
|
|
1020102210222020,
|
|
1022102210221022,
|
|
1022002200221010,
|
|
1022102010221020,
|
|
1022122010222220,
|
|
1022102010221020,
|
|
1022122010221210,
|
|
1022102010221020,
|
|
1022122010222220,
|
|
1022102210221010,
|
|
0022101022101010,
|
|
40201021,
|
|
0010200010102220,
|
|
10201021,
|
|
0010200010102220,
|
|
10201121,
|
|
01201121,
|
|
2210100021201000,
|
|
1120100012101000,
|
|
10201021,
|
|
01201122,
|
|
2210100021201000,
|
|
1120100012101000,
|
|
11221222,
|
|
11221222,
|
|
1110222011202210,
|
|
03300040,
|
|
|
|
#GOGOSTART
|
|
1111202011112022,
|
|
1020111010404000,
|
|
1121202011212022,
|
|
1020112010404000,
|
|
1111202011112022,
|
|
1020111010404011,
|
|
2000201022102010,
|
|
01121440,
|
|
1111202011112022,
|
|
1022111010404000,
|
|
1121202011212022,
|
|
1022112010404000,
|
|
1111202011112022,
|
|
1022111010404011,
|
|
2000201022102010,
|
|
03343040,
|
|
|
|
#GOGOEND
|
|
1020102011201020,
|
|
1022122012221022,
|
|
1020102011201020,
|
|
1022122011221022,
|
|
1020102011201020,
|
|
1022122012221020,
|
|
1120112011201120,
|
|
1122202000000000,
|
|
1000001120000010,
|
|
01011120,
|
|
1000001120000010,
|
|
0010001011102000,
|
|
1000001120000010,
|
|
01011120,
|
|
1120001012100010,
|
|
2210001021200010,
|
|
2000001120001010,
|
|
02101120,
|
|
1120001012100010,
|
|
2210001021200010,
|
|
1020102010201120,
|
|
1020112010201120,
|
|
1120112011221120,
|
|
03300040,
|
|
1,
|
|
3430,
|
|
1,
|
|
3440,
|
|
11,
|
|
11,
|
|
1020102010201011,
|
|
1010001000102022,
|
|
|
|
#GOGOSTART
|
|
#SECTION
|
|
#BRANCHSTART p,80,90
|
|
#N
|
|
1111202011112022,
|
|
1020111010404022,
|
|
|
|
#E
|
|
1112202011122022,
|
|
1020121010404022,
|
|
|
|
#M
|
|
1211202012112022,
|
|
1020112010404022,
|
|
|
|
#SCROLL 1.2
|
|
#SECTION
|
|
#BRANCHSTART p,80,90
|
|
#N
|
|
1121202011212022,
|
|
1020112010404022,
|
|
|
|
#E
|
|
1211202012112022,
|
|
1020212010404022,
|
|
|
|
#M
|
|
1221202012212022,
|
|
1020122010404022,
|
|
|
|
#SCROLL 1.5
|
|
#SECTION
|
|
#BRANCHSTART p,80,90
|
|
#N
|
|
1111202011112022,
|
|
1020111010404011,
|
|
2000201022102010,
|
|
0010102010404022,
|
|
|
|
#E
|
|
1112202011122022,
|
|
1020121010404011,
|
|
2000201022102010,
|
|
0010102010404022,
|
|
|
|
#M
|
|
1211202012112022,
|
|
1020112010404011,
|
|
2000201022102010,
|
|
0010102010404022,
|
|
|
|
#SCROLL 2
|
|
#SECTION
|
|
#BRANCHSTART p,80,90
|
|
#N
|
|
1111202011112022,
|
|
1022111010404022,
|
|
|
|
#E
|
|
1112202011122022,
|
|
1020121010404022,
|
|
|
|
#M
|
|
1211202012112022,
|
|
1022112010404022,
|
|
|
|
#SCROLL 3
|
|
#SECTION
|
|
#BRANCHSTART p,80,90
|
|
#N
|
|
1121202011212022,
|
|
1022112010404022,
|
|
|
|
#E
|
|
1211202012112022,
|
|
1022212010404022,
|
|
|
|
#M
|
|
1221202012212022,
|
|
1022122010404022,
|
|
|
|
#SCROLL 4
|
|
#SECTION
|
|
#BRANCHSTART p,80,90
|
|
#N
|
|
1111202011112022,
|
|
1022111010404011,
|
|
2000201022102010,
|
|
01121000,
|
|
03343040,
|
|
|
|
#E
|
|
1112202011122022,
|
|
1022121010404011,
|
|
2000201022102010,
|
|
01121000,
|
|
|
|
#M
|
|
1211202012112022,
|
|
1022112010404011,
|
|
2000201022102010,
|
|
01121000,
|
|
03343040,
|
|
|
|
#BRANCHEND
|
|
#GOGOEND
|
|
|
|
|
|
#END
|
|
|
|
|
|
COURSE:Oni
|
|
LEVEL:8
|
|
SCOREINIT:400
|
|
SCOREDIFF:100
|
|
|
|
|
|
#START
|
|
|
|
|
|
2220222022202000,
|
|
3000000000000000,
|
|
3000000000000000,
|
|
3000000000000000,
|
|
3000000030000000,
|
|
1000100010001020,
|
|
1000100010221020,
|
|
1000100010221022,
|
|
0030303030000000,
|
|
1000200010102010,
|
|
0010200010202000,
|
|
1000200010102010,
|
|
0010200010002000,
|
|
1000200010102010,
|
|
0010200010202000,
|
|
1010200010102020,
|
|
1000000000222020,
|
|
1020102010221020,
|
|
1020102010221020,
|
|
1020102010221020,
|
|
1022102012221020,
|
|
1020102010221020,
|
|
1020102010221020,
|
|
1022102010221020,
|
|
0011101011101000,
|
|
1002201010022010,
|
|
0012201010002000,
|
|
1002201010022010,
|
|
0012201010002011,
|
|
1002201010022010,
|
|
0012201010022010,
|
|
1210001012100010,
|
|
1210001012100010,
|
|
1002201010022010,
|
|
0012201010222020,
|
|
1120100011201000,
|
|
1120100011201000,
|
|
5000000000000000,
|
|
000000000000000000000008000000000000000000000000,
|
|
1110111011111030,
|
|
0030300000000000,
|
|
|
|
#GOGOSTART
|
|
1011201020112010,
|
|
1120112010222000,
|
|
1011201020112010,
|
|
1120112010222000,
|
|
1011201020112020,
|
|
1022102210112020,
|
|
1110222011102220,
|
|
500000000000000000000000000000000008000000000000,
|
|
1020102011201120,
|
|
1000111110202000,
|
|
1020102011201120,
|
|
1000222220102000,
|
|
1020102011201120,
|
|
1000111110222020,
|
|
1110111011111110,
|
|
0030303030000000,
|
|
|
|
#GOGOEND
|
|
1020102010221020,
|
|
1020102010221020,
|
|
1020102010221020,
|
|
1022102012221020,
|
|
1020102010221020,
|
|
1020102010221020,
|
|
1220122012201220,
|
|
1022122010000000,
|
|
1000001020000010,
|
|
0010001020000000,
|
|
1000001020000010,
|
|
0010001020000000,
|
|
1000001020000010,
|
|
0010001020000010,
|
|
1020001020200010,
|
|
1020001020200000,
|
|
1000001020001010,
|
|
0000100010001000,
|
|
2110100021101000,
|
|
2110100021101000,
|
|
5,
|
|
000000000000000000000008000000000000000000000000,
|
|
1110111011111030,
|
|
0030300000000000,
|
|
2000200020002020,
|
|
0022200020000000,
|
|
2000200020002020,
|
|
0022202020000000,
|
|
1020100010201000,
|
|
1020102010201000,
|
|
1000001000000000,
|
|
3030003000300030,
|
|
|
|
#GOGOSTART
|
|
1011201020112010,
|
|
1120112210222000,
|
|
1011201020112010,
|
|
1120112210222020,
|
|
1011201020112020,
|
|
1022102210222020,
|
|
1110222011102220,
|
|
500000000000000000000000000000000008000000000000,
|
|
1020102011201120,
|
|
1022111110202000,
|
|
1020102011201120,
|
|
1022102210112020,
|
|
1020102011201120,
|
|
1022111110222020,
|
|
1112111211111110,
|
|
0030303030222220,
|
|
0030303030004000,
|
|
|
|
#GOGOEND
|
|
|
|
|
|
#END
|
|
|
|
|
|
COURSE:Hard
|
|
LEVEL:7
|
|
SCOREINIT:450
|
|
SCOREDIFF:120
|
|
|
|
|
|
#START
|
|
|
|
|
|
,
|
|
3,
|
|
3,
|
|
3,
|
|
33,
|
|
10101012,
|
|
10101012,
|
|
10101212,
|
|
03333000,
|
|
10201120,
|
|
11210120,
|
|
10201120,
|
|
11210120,
|
|
10201120,
|
|
11210120,
|
|
10201120,
|
|
1,
|
|
12121212,
|
|
12121210,
|
|
12121212,
|
|
12101210,
|
|
12121212,
|
|
12121210,
|
|
12101212,
|
|
1,
|
|
10011021,
|
|
01011000,
|
|
10011021,
|
|
01011220,
|
|
10011021,
|
|
01011220,
|
|
12,
|
|
2,
|
|
10112011,
|
|
21012021,
|
|
10021002,
|
|
10021020,
|
|
55555555,
|
|
55558000,
|
|
1110111011100030,
|
|
0030300000000000,
|
|
#GOGOSTART
|
|
1000100010201020,
|
|
1000111110000000,
|
|
10101212,
|
|
1000222220000000,
|
|
10101212,
|
|
1000111110002220,
|
|
1000222010002220,
|
|
5555555555558000,
|
|
10101012,
|
|
1020100011111000,
|
|
10101012,
|
|
1020100022222000,
|
|
10101212,
|
|
1000111110000000,
|
|
1111100011111000,
|
|
0030303030000000,
|
|
#GOGOEND
|
|
12121210,
|
|
12121210,
|
|
12121212,
|
|
12121210,
|
|
12121210,
|
|
12121210,
|
|
12121212,
|
|
1020102210000000,
|
|
10022001,
|
|
01022000,
|
|
10022001,
|
|
01022000,
|
|
10022001,
|
|
01022020,
|
|
10021002,
|
|
10021000,
|
|
10022001,
|
|
01022000,
|
|
11,
|
|
11,
|
|
1111,
|
|
11111111,
|
|
1110111011100030,
|
|
0030300000000000,
|
|
3,
|
|
3,
|
|
3,
|
|
33,
|
|
3232,
|
|
3232,
|
|
6668,
|
|
33030300,
|
|
#GOGOSTART
|
|
10101212,
|
|
1000111110004000,
|
|
10101212,
|
|
1000222220003000,
|
|
10101212,
|
|
1000111110002220,
|
|
1000222010002220,
|
|
5008,
|
|
10101012,
|
|
1020102011111000,
|
|
10101012,
|
|
1020102022222000,
|
|
10101212,
|
|
1020111110002000,
|
|
1111100011111000,
|
|
0030303030000000,
|
|
0030303030004000,
|
|
|
|
#END
|
|
|
|
|
|
|
|
COURSE:normal
|
|
LEVEL:6
|
|
SCOREINIT:600
|
|
SCOREDIFF:173
|
|
BALLOON:10,10
|
|
#START
|
|
,
|
|
3,
|
|
3,
|
|
3,
|
|
33,
|
|
1111,
|
|
1111,
|
|
1111,
|
|
01111000,
|
|
10001110,//10
|
|
12,
|
|
10001110,
|
|
12,
|
|
10001110,
|
|
12,
|
|
10001110,
|
|
1,
|
|
10101110,
|
|
1202,
|
|
10101110,//20
|
|
12,
|
|
10101110,
|
|
1202,
|
|
10101110,
|
|
1,
|
|
10022000,
|
|
12,
|
|
10022000,
|
|
1,
|
|
10022000,//30
|
|
12,
|
|
1,
|
|
0,
|
|
10022000,
|
|
10022000,
|
|
11,
|
|
11,
|
|
5,
|
|
08,
|
|
7,//40
|
|
00000800,
|
|
#GOGOSTART
|
|
1111,
|
|
11103000,
|
|
1111,
|
|
11103000,
|
|
1111,
|
|
11103000,
|
|
11101110,
|
|
3,
|
|
1111,
|
|
22204000,//50
|
|
1111,
|
|
22204000,
|
|
1111,
|
|
22204000,
|
|
11101110,
|
|
01111000,
|
|
#GOGOEND
|
|
1111,
|
|
1110,
|
|
2222,//60
|
|
2220,
|
|
1111,
|
|
1110,
|
|
2222,
|
|
2220,
|
|
10022000,
|
|
12,
|
|
10022000,
|
|
1,
|
|
10022000,//70
|
|
12,
|
|
1,
|
|
0,
|
|
10022000,
|
|
10022000,
|
|
11,
|
|
11,
|
|
5,
|
|
08,
|
|
7,//80
|
|
00000800,
|
|
3,
|
|
3,
|
|
3,
|
|
33,
|
|
34,
|
|
34,
|
|
3,
|
|
33030000,
|
|
#GOGOSTART
|
|
1111,
|
|
11103000,
|
|
1111,
|
|
11103000,
|
|
1111,
|
|
11103000,
|
|
11101110,
|
|
3,
|
|
1111,
|
|
22204000,
|
|
1111,//100
|
|
22204000,
|
|
1111,
|
|
22204000,
|
|
11101110,
|
|
5008,
|
|
01111030,
|
|
#GOGOEND
|
|
0,
|
|
0,
|
|
0,
|
|
0,//110
|
|
#END
|
|
|
|
|
|
|
|
COURSE:easy
|
|
LEVEL:3
|
|
SCOREINIT:410
|
|
SCOREDIFF:120
|
|
BALLOON:8,8
|
|
#START
|
|
0,
|
|
3,
|
|
0,
|
|
3,
|
|
3,
|
|
11,
|
|
11,
|
|
11,
|
|
0330,
|
|
1110,//10
|
|
11,
|
|
1110,
|
|
1,
|
|
1110,
|
|
12,
|
|
1110,
|
|
1,
|
|
1111,
|
|
12,
|
|
1111,//20
|
|
12,
|
|
1111,
|
|
12,
|
|
1111,
|
|
1,
|
|
12,
|
|
2,
|
|
12,
|
|
2,
|
|
12,//30
|
|
2,
|
|
1,
|
|
0,
|
|
12,
|
|
22,
|
|
11,
|
|
11,
|
|
5,
|
|
8,
|
|
7,//40
|
|
08000000,
|
|
#GOGOSTART
|
|
1111,
|
|
13,
|
|
2222,
|
|
24,
|
|
1111,
|
|
13,
|
|
11,
|
|
1,
|
|
1111,//50
|
|
0330,
|
|
2222,
|
|
0440,
|
|
1111,
|
|
0330,
|
|
11,
|
|
0330,
|
|
#GOGOEND
|
|
1111,
|
|
12,
|
|
1111,//60
|
|
12,
|
|
1111,
|
|
12,
|
|
1111,
|
|
1,
|
|
12,
|
|
2,
|
|
12,
|
|
2,
|
|
12,//70
|
|
2,
|
|
1,
|
|
0,
|
|
12,
|
|
22,
|
|
11,
|
|
11,
|
|
5,
|
|
8,
|
|
7,//80
|
|
08000000,
|
|
3,
|
|
4,
|
|
3,
|
|
43,
|
|
33,
|
|
33,
|
|
3,
|
|
3330,
|
|
#GOGOSTART
|
|
1111,//90
|
|
13,
|
|
2222,
|
|
24,
|
|
1111,
|
|
13,
|
|
11,
|
|
1,
|
|
1111,
|
|
0330,
|
|
2222,//100
|
|
0440,
|
|
1111,
|
|
0330,
|
|
11,
|
|
0330,
|
|
0330,
|
|
#GOGOEND
|
|
0,
|
|
0,
|
|
0,
|
|
0,//110
|
|
#END |