Files
ESE/09 Namco Original/BE THE ACE/BE THE ACE.tja
T
2023-06-15 19:15:39 -05:00

396 lines
5.4 KiB
Plaintext

//TJADB Project
TITLE:BE THE ACE
TITLEJA:BE THE ACE
SUBTITLE:--Keiichi Okabe feat. Yuuki Tai
BPM:129.98
WAVE:BE THE ACE.ogg
OFFSET:-1.851
DEMOSTART:45.140
COURSE:Edit
LEVEL:9
SCOREINIT:610
SCOREDIFF:160
#START
,
#BPMCHANGE 134.89
,
#BPMCHANGE 134.03
000000000000000000202020100100200200100100100100,
#BPMCHANGE 133
2010210221012120,
1010210212012210,
1010210221012120,
1010210212012210,
2,
100000000100000000111111,
2,
100000000000000000101010200000101010200200100100,
2010211012112011,
2010210112102011,
2010211012112011,
202020100000200100100000100200100000200100000100,
2010211012112011,
2010221112102010,
2210211012112011,
2010201012102210,
2010211012112011,
2010202112102010,
2010221011202210,
2010201020112111,
2,
1010200121102101,
2010200121102101,
2010200121102101,
2010200121102111,
2010102100202210,
2010102100201111,
2010201202102010,
2010120211104040,
101010100100200000100200101010100100200000100200,
101010100100202020200100200000000000000000200000,
100010001000101010100100200100200000101010100100,
200020002000200100100200100200100100200200100100,
20000334,
0010200121102101,
2010200121102101,
2010200121102111,
2010102100202210,
200000100000100000200100000000200000101010100100,
2010201202102050,
000000000000000000000000000000000008000000000000,
#GOGOSTART
2010202121102101,
2010202122102101,
2010202121102101,
2010202122102111,
2010102101202011,
2030304000112211,
2010221011202210,
2010201020112111,
200000000000000000202020100200000200100100200200,
1010221221012120,
1010221212012210,
1010221221012120,
1010221212221040,
#GOGOEND
#END
COURSE:Oni
LEVEL:6
BALLOON:20
SCOREINIT:840
SCOREDIFF:240
#START
,
#BPMCHANGE 134.89
0202,
#BPMCHANGE 134.03
0000200011002000,
#BPMCHANGE 133
1000200011102000,
1110201100000000,
1000200011102000,
1000201100000000,
11000000,
10210010,
11000000,
1000201100101100,
1110201101102000,
1000201101102000,
1110201101102000,
1000201101102000,
1000201100000000,
1000201102202000,
1000201100002000,
1000100002202000,
1000201101102000,
1000201101102000,
1000101101101110,
500000000000000000000000000008000000000000000000,
3,
1000200011102000,
1000200011102000,
1110101101102210,
1110201101102210,
1110201001101000,
1110201001101110,
1010110101102000,
1010110101102000,
500000000000000000000000000000000000000000000008,
0000200022002000,
1110210010102000,
1010210011102000,
30000333,
0000000022202000,
1120102011101000,
1000100022202000,
1010221000112000,
1010221000112000,
1010110101102000,
1010110101102000,
#GOGOSTART
3000100101102210,
3000100101102000,
3000100101102210,
1000100101102000,
1220201220201110,
0030303000112020,
1000200011101000,
1000200011101000,
4000000022022000,
7,
08000000,
1110200010102000,
1110200011111030,
#GOGOEND
#END
COURSE:Hard
LEVEL:6
BALLOON:8,15
SCOREINIT:910
SCOREDIFF:273
#START
,
#BPMCHANGE 134.89
0202,
#BPMCHANGE 134.03
0000200011002000,
#BPMCHANGE 133
1000200011102000,
1110201100000000,
1000200011102000,
1000201100000000,
11000000,
10210010,
11000000,
10210010,
1110201100102000,
1000201101102000,
1110201100102000,
1000201101102000,
10210220,
1000201002202000,
10210220,
10210000,
10210220,
1110201000100050,
0000000000000000000000000000000000000000000000080000000000000000,
1111,
3,
1000200111102000,
1000200211102000,
1000200111102000,
1000200211102000,
10210210,
10120120,
3000200111102000,
3005,
0000000000000000000000000000000000000000000000000000000000000008,
,
1110200010002000,
1000201100000000,
30000337,
00080000,
1000200111102000,
1000200211102000,
1000201002202000,
1000102001102000,
1000200111102000,
5000000000000000000000000000000000000000000000080000000000000000,//44
#GOGOSTART
1010200111102000,
1010200211102000,
1010202011102000,
1010200211102000,
10210012,
03330000,
1000200111102000,
3333,
4,
7,
0800000000000000,
1000200011102000,
1110201100000030,//57
#GOGOEND
,
,
,
#END
COURSE:Normal
LEVEL:5
BALLOON:10
SCOREINIT:1080
SCOREDIFF:395
#START
,
#BPMCHANGE 134.89
0202,
#BPMCHANGE 134.03
0202,
#BPMCHANGE 133
1202,
11,
1202,
11,
11000000,
10010010,
11000000,
10010010,
11200020,
1202,
11200020,
1202,
10010000,
10210000,
10010000,
10210000,
10210110,
10210110,
10101110,
5000000000000000000000000000000000000008000000000000000000000000,
3,
10201120,
10201120,
10101100,
5000000000000000000000000000000800000000000000000000000000000000,
10010010,
10110010,
10200220,
10200220,
5000000000000000000000000000000000000000000000000000000000000008,
,
0202,
0202,
30000333,
,
10101100,
10101100,
11010020,
11010020,
11201020,
11201000,//44
#GOGOSTART
30000333,
00000111,
01101100,
5000000000000000000000000000000000000008000000000000000000000000,
10010011,
01110111,
00201110,
10201110,
4,
7,
0800000000000000,
1202,
10201033,//57
#GOGOEND
,
,
,
#END
COURSE:Easy
LEVEL:4
BALLOON:10
SCOREINIT:910
SCOREDIFF:453
#START
,
#BPMCHANGE 134.89
0202,
#BPMCHANGE 134.03
0202,
#BPMCHANGE 133
1202,
11,
1202,
11,
1,
10010000,
1,
10010000,
1202,
10010000,
1202,
10010000,
11,
10010020,
11,
10000220,
11,
10010020,
11,
5000000000000000000000000000000000000008000000000000000000000000,
3,
12,
1120,
1110,
1120,
10030000,
20040000,
1102,
1102,
5000000000000000000000000000000000000000000000000000000000000008,
,
0202,
0202,
30000333,
,
1110,
5000000000000000000000000000000000000008000000000000000000000000,
10010020,
10010020,
1202,
5000000000000000000000000000000000000008000000000000000000000000,//44
#GOGOSTART
30000333,
,
1120,
5000000000000000000000000000000000000008000000000000000000000000,
10010010,
10010010,
1100,
1100,
4,
7,
0800000000000000,
0202,
10201003,//57
#GOGOEND
,
,
,
#END