Files
ESE/09 Namco Original/Dororon Girl/Dororon Girl.tja
T
2023-03-24 23:02:25 -04:00

281 lines
10 KiB
Plaintext

//TJADB Project
TITLE:Dororon Girl
TITLEJA:どろろんガール
SUBTITLE:--Masako Oogami feat. Asami Shimoda
SUBTITLEJA:「太鼓の達人DS ドロロン!ヨーカイ大決戦!!」メインテーマ曲
BPM:120
WAVE:Dororon Girl.ogg
OFFSET:-1.000
DEMOSTART:48.983
COURSE:Oni
LEVEL:7
BALLOON:6,6
SCOREINIT:750
SCOREDIFF:180
#START
#GOGOSTART
100000100100000100200000100000100100000100200000,
100000100100000100200000100000200100000100200000,
100000100100000100200000100000100100000100200000,
100000100100000100200000100000200100000100200000,
#GOGOEND
100000200000100000200000100000200000100000200000,
100000000000000000000000000000000000300000000000,
100000200000100000200000100000200100000100200000,
000000100000200000100000200000200100000100200000,
100000100000100000200000100000100100000000200000,
100000100000100000200000100000100100000000200000,
100000200000100000000000100000200000000000200000,
100000200000100000000000200000100200000000000000,
100000100000200000200000100000100000200000200000,
300000400000300000400000300000000000300000000000,
100000100200000000200000100000100200000000200000,
100000100200000100200000100000200000200000000000,
100000100000100000200100000100200000100100200000,
500000000000000008000000200000100100000000200000,
100000100000100000200100000100200000100100200000,
500000000000000008000000200000100100000000200000,
100000000000100000100000100000200200000200100000,
100000000000100000100000100000200200000200100000,
100000100000200000200000100000100000200000200000,
100000200000100000200000100000400000300000000000,
#GOGOSTART
100100000100200100000200100200000100200100000200,
500000000000000008000000300000000400000000400000,
200200000200100200000100200100000200100200000100,
500000000000000008000000300000000400000000400000,
100000200000100100200000100000200000100100200000,
300000000000300000000000300000000000000000000000,
600000000000000000000000000000000008000000000000,
600000000000000008000000100200000200100000000000,
100200000100200100000200100200000100200100000200,
700000000000000000800000300000000300000000400000,
200100000200100200000100200100000200100200000100,
700000000000000000800000300000000300000000400000,
100000200000100100200000100000200100100000200000,
100000200000100100200000100000200100100000200000,
600000000000000000000000000000000000000008000000,
300000000000400000000000100100000100100000200000,
100000100100000200100000100000100100000200100000,
100000100100000200100000100000200100000100200000,
100000100100000200100000100000100100000200100000,
100000100100000200100000100000200100000100200000,
#GOGOEND
100000200000100000200000100000200000100000200000,
100000000000200000000000200000000000200000000000,
100200000200000100100000100200000200000100100000,
300000000000000000000000000000000000000000000000,
#END
COURSE:Hard
LEVEL:6
BALLOON:15,7,7
SCOREINIT:870
SCOREDIFF:210
#START
#GOGOSTART
100000100100000100100000100000100100000000000000,
100000100100000100100000100000100100000000000000,
100000100100000100100000100000100100000000000000,
100000100100000100100000100000100100000000000000,
200000200000200000200000200000200000200000200000,
#GOGOEND
200000000000000000000000000000000000300000000000,
100000000000100000000000100000000200000000200000,
000000100000100000100000100000000200000000000000,
100000100000100000000000100000100100000000000000,
100000100000100000000000100000100100000000000000,
200000200000200000000000200000200000000000200000,
200000200000200000000200000000000000000000000000,
100000100000200000200000100000100000200000200000,
100000200000100000200000100000000000100000000000,
700000000000000000000000000000000000000000000800,
000000000000000000000000000000000000000000000000,
100000200000100000200000100000000200000000200000,
500000000000000000000000000800000000000000000000,
100000200000100000200000100000000200000000200000,
500000000000000000000000000800000000000000000000,
100000000000100000100000100000000300000000000000,
100000000000100000100000100000000300000000000000,
100000100000200000200000100000100000200000200000,
100000200000100000200000100000000000000000000000,
#GOGOSTART
100100000100100100000100100100000000300000000000,
600000000000000000000000000000000800000000000000,
200200000200200200000200200200000000400000000000,
600000000000000000000000000000000800000000000000,
100000000000200000000000100000100000200000200000,
300000000000300000000000300000000000000000000000,
600000000000000000000000000000000800000000000000,
600000000000000800000000100100000100100000000000,
100100000100100100000100100100000000100000100000,
700000000000000000000800000000000000000000000000,
200200000200200200000200200200000000200000200000,
700000000000000000000800000000000000000000000000,
100000000000200000000000100000100000200000200000,
100000000000200000000000100000200000100000200000,
600000000000000000000000000000000000000800000000,
300000000000400000000000300000000000300000000000,
100000100100000100100000100000100100000000000000,
100000100100000100100000100000100100000000000000,
100000100100000100100000100000100100000000000000,
100000100100000100100000100000100100000000000000,
#GOGOEND
200000200000200000200000200000200000200000200000,
200000000000200000000000200000000000200000000000,
100100000200000100100000100100000200000000300000,
300000000000000000000000000000000000000000000000,
#END
COURSE:Normal
LEVEL:5
BALLOON:12,14,6,6,18
SCOREINIT:1150
SCOREDIFF:290
#START
#GOGOSTART
100000100000100000000000100000100000100000000000,
100000000000100000000000100000000000000000000000,
100000100000100000000000100000100000100000000000,
100000000000100000000000100000000000000000000000,
#GOGOEND
900000000000000000000000000000000000000000800000,
000000000000000000000000000000000000000000000000,
200000000000200000000000200000000000000000000000,
200000000000200000000000200000000000000000000000,
100000100000100000000000300000000000000000000000,
100000100000100000000000300000000000000000000000,
200000000000200000000000200000000000000000000000,
200000000000200000000000200000000000000000000000,
100000100000100000000000100000100000100000000000,
200000200000200000200000200000000000200000000000,
700000000000000000000000000000000000000000800000,
000000000000000000000000000000000000000000000000,
100000000000100000100000100000000000100000000000,
500000000000000000000000800000000000000000000000,
100000000000100000100000100000000000100000000000,
500000000000000000000000800000000000000000000000,
100000000000100000000000200000000000000000000000,
100000000000100000000000200000000000000000000000,
100000000000100000100000100000000000100000100000,
100000000000200000200000200000000000000000000000,
#GOGOSTART
300000000000300000000000300000000000300000000000,
600000000000000000000000000000800000000000000000,
400000000000400000000000400000000000400000000000,
600000000000000000000000000000800000000000000000,
100000000000100000000000100000100000100000000000,
300000000000300000000000300000000000000000000000,
600000000000000000000000000000800000000000000000,
600000000000000000000000000000800000000000000000,
300000000000300000000000300000000000300000000000,
700000000000000000000000000000800000000000000000,
400000000000400000000000400000000000400000000000,
700000000000000000000000000000800000000000000000,
100000000000100000000000100000100000100000000000,
100000000000100000000000100000100000100000000000,
500000000000000000000000000000000000800000000000,
000000000000400000000000300000000000300000000000,
900000000000000000000000000000000000000000000000,
000000000000000000800000000000000000000000000000,
000000000000000000000000000000000000000000000000,
000000000000000000000000000000000000000000000000,
#GOGOEND
100000100000100000100000100000100000100000100000,
100000000000200000000000200000000000200000000000,
300000000000000000000000300000000000000000000000,
300000000000000000000000000000000000000000000000,
#END
COURSE:Easy
LEVEL:3
BALLOON:10,10,5,5,15
SCOREINIT:1040
SCOREDIFF:370
#START
#GOGOSTART
100000000000000000000000100000000000000000000000,
100000000000100000000000100000000000000000000000,
300000000000000000000000300000000000000000000000,
300000000000300000000000300000000000000000000000,
#GOGOEND
900000000000000000000000000000000000000000800000,
000000000000000000000000000000000000000000000000,
000000000000000000000000000000000000000000000000,
000000000000000000000000000000000000000000000000,
100000000000100000000000100000000000000000000000,
100000000000100000000000100000000000000000000000,
200000000000000000000000200000000000000000000000,
200000000000000000000000200000000000000000000000,
100000000000100000000000100000000000100000000000,
200000000000200000000000200000000000000000000000,
700000000000000000000000000000000000000000800000,
000000000000000000000000000000000000000000000000,
100000000000000000000000100000000000100000000000,
500000000000000000000000800000000000000000000000,
200000000000000000000000200000000000200000000000,
500000000000000000000000800000000000000000000000,
100000000000000000000000100000000000000000000000,
200000000000000000000000200000000000000000000000,
100000000000100000000000100000000000000000000000,
200000000000200000000000200000000000000000000000,
#GOGOSTART
100000000000100000000000100000000000100000000000,
500000000000000000000000800000000000000000000000,
200000000000200000000000200000000000200000000000,
500000000000000000000000800000000000000000000000,
100000000000000000000000100000000000000000000000,
300000000000300000000000300000000000000000000000,
600000000000000000000000000000800000000000000000,
300000000000000000000000300000000000000000000000,
100000000000100000000000100000000000100000000000,
700000000000000000800000000000000000000000000000,
200000000000200000000000200000000000200000000000,
700000000000000000800000000000000000000000000000,
100000000000100000000000100000000000000000000000,
200000000000200000000000200000000000000000000000,
500000000000000000000000000000000000000000800000,
000000000000000000000000300000000000300000000000,
900000000000000000000000000000000000000000000000,
000000000000000000800000000000000000000000000000,
000000000000000000000000000000000000000000000000,
000000000000000000000000000000000000000000000000,
#GOGOEND
100000000000100000000000100000000000100000000000,
100000000000000000000000000000000000000000000000,
300000000000000000000000300000000000000000000000,
300000000000000000000000000000000000000000000000,
#END