Files
ESE/09 Namco Original/Emma/Emma.tja
T
2023-03-24 23:02:25 -04:00

582 lines
6.6 KiB
Plaintext

//TJADB Project
TITLE:Emma
TITLEJA:Emma
SUBTITLE:--BlackY feat. Risa Yuzuki
SUBTITLEJA:BlackY feat. Risa Yuzuki
BPM:333
WAVE:Emma.ogg
OFFSET:-1.462
DEMOSTART:87.949
COURSE:Oni
LEVEL:7
BALLOON:24
SCOREINIT:1740
SCOREDIFF:0
#START
#MEASURE 8/4
#SCROLL 0.5
3222,
20020000,
2,
20202222,
#GOGOSTART
3003003003003030,
#GOGOEND
0300,
1000002220020020,
#GOGOSTART
3003003003003030,
600000000000000000000000000000000000000008000000,
#GOGOEND
3,
,
#GOGOSTART
1010101011101010,
1110111011111110,
#GOGOEND
3,
,
#GOGOSTART
2020202022202020,
2220222022222220,
#GOGOEND
1110111010111000,
1110111010101110,
1110111010111000,
1110111022222020,
1001001001001001,
0010010010222220,
1011100020112000,
1011201110112000,
#MEASURE 6/4
301101,
#MEASURE 8/4
2000202000202011,
#MEASURE 6/4
101101,
#MEASURE 8/4
2002002210020020,
#MEASURE 6/4
1000001001000002020,
#MEASURE 8/4
200000002000000020000000200000000100000000200000,
#MEASURE 6/4
111020111020,
#MEASURE 8/4
2212,
3000201011102010,
1110201020112010,
1000201011102010,
1110201020112020,
1000201011102010,
1110201020112000,
1111101011111010,
2222202022222000,
#MEASURE 4/4
#BPMCHANGE 166.5
#SCROLL 0.75
3022,
1000101020002220,
1000101020001110,
1000100022222020,
1000100020002220,
1000111020002220,
1011101020001110,
1000100022222020,
#MEASURE 8/4
#BPMCHANGE 333
#SCROLL 0.5
1110111010111010,
0010111010112000,
1110111010111000,
1110111022222000,
1110111010111010,
0010111010112000,
1110111010222020,
500000000000000000000000000000000000000008000000,
3,
,
,
0444,
#GOGOSTART
3001002011102020,
1110222010221020,
1001001020020020,
1011100022102000,
3000222210001111,
1001001120202220,
1001002010111110,
2011201022102000,
#GOGOEND
3002002030202020,
2220
#GOGOSTART
300010221020,
1003001020040020,
1011100022102000,
3000111020201111,
1011201110112000,
1020112010221020,
1111202011112000,
3344,
600000000000000000000000000000000000000008000000,
#GOGOEND
7,
08,
2,
20202222,
#GOGOSTART
10010001,
0010111011101111,
#GOGOEND
1,
#END
COURSE:Hard
LEVEL:5
BALLOON:21,9,18,21,21
SCOREINIT:3650
SCOREDIFF:0
#START
#MEASURE 8/4
#SCROLL 0.5
3,
,
2,
2220,
#GOGOSTART
3003003003003030,
#GOGOEND
0300,
1000000020020020,
#GOGOSTART
3003003003003030,
600000000000000000000000000000000000000008000000,
#GOGOEND
3,
,
#GOGOSTART
500000000000000008000000500000000000000008000000,
500000000000000008000000500000000000000008000000,
#GOGOEND
1,
,
#GOGOSTART
600000000000000008000000600000000000000008000000,
600000000000000008000000600000000000000008000000,
#GOGOEND
10101011,
10101022,
10101011,
10102222,
7,
08,
3333,
4444,
#MEASURE 6/4
101101,
#MEASURE 8/4
20220220,
#MEASURE 6/4
101101,
#MEASURE 8/4
2002002020020020,
#MEASURE 6/4
1000001001000007000,
#MEASURE 8/4
000000000000000000000080000000000000000000000000,
#MEASURE 6/4
101101,
#MEASURE 8/4
2222,
10101122,
10112000,
10101122,
10112000,
10101122,
10112000,
500000000000000008000000500000000000000008000000,
600000000000000008000000600000000000000008000000,
#BPMCHANGE 166.5
#MEASURE 4/4
#SCROLL 0.75
3022,
10112000,
10112020,
10102222,
10102011,
10112000,
11102011,
10102222,
#BPMCHANGE 333
#MEASURE 8/4
#SCROLL 0.5
10121011,
02101022,
10121011,
12102222,
10121011,
02101022,
10121011,
500000000000000000000000000000000000000008000000,
3,
,
,
0444,
#GOGOSTART
3001001020202020,
11221122,
1001001020020020,
1122,
500000000000000000000000000000000008000000000000,
1001001020202020,
1001001070000000,
0008,
#GOGOEND
1002002010202020,
20
#GOGOSTART
301122,
1001001020020020,
1122,
500000000000000000000000000000000000000000000008,
0122,
7,
08,
3344,
600000000000000000000000000000000000000008000000,
#GOGOEND
7,
08,
2,
2220,
#GOGOSTART
6,
000000000000000000000000000000000000000008000000,
#GOGOEND
3,
,
,
,
#END
COURSE:Normal
LEVEL:5
BALLOON:17,12,5,12,12,12
SCOREINIT:5800
SCOREDIFF:0
#START
#MEASURE 8/4
#SCROLL 0.5
3,
,
2,
22,
#GOGOSTART
600000000000000000000000000000000000000008000000,
#GOGOEND
0300,
12,
#GOGOSTART
9,
09,
#GOGOEND
8,
,
#GOGOSTART
500000000000000008000000500000000000000008000000,
500000000000000008000000500000000000000008000000,
#GOGOEND
1,
,
#GOGOSTART
600000000000000008000000600000000000000008000000,
600000000000000008000000600000000000000008000000,
#GOGOEND
10101011,
1120,
10101011,
1120,
7,
08,
3333,
600000000000000000000000000000000008000000000000,
#MEASURE 6/4
101100,
#MEASURE 8/4
20220000,
#MEASURE 6/4
101100,
#MEASURE 8/4
22,
#MEASURE 6/4
1000001001000007000,
#MEASURE 8/4
000000000000000000000080000000000000000000000000,
#MEASURE 6/4
101100,
#MEASURE 8/4
2222,
10001011,
12,
10001011,
12,
10001011,
12,
500000000000000008000000500000000000000008000000,
600000000000000008000000600000000008000000000000,
#BPMCHANGE 166.5
#MEASURE 4/4
#SCROLL 0.75
32,
10112000,
12,
10102220,
12,
10112000,
12,
10102220,
#BPMCHANGE 333
#MEASURE 8/4
#SCROLL 0.5
10101011,
0120,
10101011,
1120,
10101011,
0120,
10101011,
500000000000000000000000000000000000000000000008,
,
,
,
0444,
#GOGOSTART
30002220,
11102000,
1001000020020000,
1122,
500000000000000000000000000000000008000000000000,
10002220,
7,
0008,
#GOGOEND
10001022,
2
#GOGOSTART
120,
1001000020020000,
1122,
500000000000000000000000000000000000000000000008,
0122,
7,
08,
3344,
600000000000000000000000000000000000000008000000,
#GOGOEND
7,
08,
2,
22,
#GOGOSTART
6,
000000000000000000000000000000000000000008000000,
#GOGOEND
3,
,
,
,
#END
COURSE:Easy
LEVEL:3
BALLOON:13,10,4,10,10,10
SCOREINIT:8260
SCOREDIFF:0
#START
#MEASURE 8/4
#SCROLL 0.5
3,
,
2,
22,
#GOGOSTART
600000000000000000000000000000000000000008000000,
#GOGOEND
0300,
12,
#GOGOSTART
9,
09,
#GOGOEND
8,
,
#GOGOSTART
5,
000000000000000000000000000000000000000000000008,
#GOGOEND
,
,
#GOGOSTART
6,
000000000000000000000000000008000000000000000000,
#GOGOEND
1110,
1120,
1110,
1120,
7,
08,
3333,
600000000000000000000000000000000008000000000000,
#MEASURE 6/4
110,
#MEASURE 8/4
2200,
#MEASURE 6/4
110,
#MEASURE 8/4
22,
#MEASURE 6/4
1000001000000007000,
#MEASURE 8/4
000000000000000000000080000000000000000000000000,
#MEASURE 6/4
110,
#MEASURE 8/4
22,
1001,
12,
1001,
12,
1001,
12,
500000000000000000000000000000000000000008000000,
600000000000000000000000000008000000000000000000,
#BPMCHANGE 166.5
#MEASURE 4/4
#SCROLL 0.75
32,
02,
12,
02,
12,
02,
12,
02,
#BPMCHANGE 333
#MEASURE 8/4
#SCROLL 0.5
1110,
0120,
1110,
1120,
1110,
0120,
1110,
500000000000000000000000000000000000000000000008,
,
,
,
0333,
#GOGOSTART
3022,
1120,
12,
1122,
500000000000000000000000000008000000000000000000,
1022,
7,
0008,
#GOGOEND
44,
0
#GOGOSTART
120,
12,
1122,
500000000000000000000000000000000000000000000008,
0111,
7,
08,
3333,
600000000000000000000000000000000000000008000000,
#GOGOEND
7,
08,
2,
22,
#GOGOSTART
6,
000000000000000000000000000000000000000008000000,
#GOGOEND
3,
,
,
,
#END