Files
ESE/09 Namco Original/Fly away/Fly away.tja
T
2023-06-15 19:15:39 -05:00

449 lines
4.0 KiB
Plaintext

//TJADB Project
TITLE:Fly away
TITLEJA:Fly away
SUBTITLE:--Yoshihito Yano feat. Takayoshi Tanimoto
BPM:200
WAVE:Fly away.ogg
OFFSET:-1.425
DEMOSTART:39.818
COURSE:Oni
LEVEL:7
SCOREINIT:450
SCOREDIFF:110
#START
20000002,
0,
20000022,
30030030,
2000200020001111,
1010001010002011,
1000200010102010,
01201120,
10201121,
01210120,
10201120,
10210340,
0000200020222022,
2010100020102011,
10201121,
01201120,
10201121,
01210120,
10201120,
11210120,
1000202210201000,
10211120,
10210120,
10211120,
10210120,
10210121,
10210120,
10210121,
10210120,
1000221000112000,
0010200020111011,
1010003030003000,
#GOGOSTART
1010201110102010,
0010201110102010,
0010201110102010,
3333,
1011202010222010,
01201120,
1020102010201011,
1010101011112000,
1010201110102010,
0010201110102010,
0010201110102010,
3333,
1011202010222010,
01201120,
12121210,
33034033,
03403030,
#GOGOEND
11211121,
11211121,
11210121,
01211020,
11211121,
11211121,
1000200010102022,
1122,
10101210,
10101210,
10101210,
10101120,
10110122,
0000300000202022,
1000221000221000,
2210002210003000,
6,
0,
80202202,
00202202,
00404040,
10101110,
10201121,
01201120,
1000100010102011,
1010101011112000,
#GOGOSTART
1010201110102010,
0010201110102010,
0010201110102010,
3333,
1011202010222010,
01201120,
12121210,
3030003040002211,
1010201110102011,
1010201110102011,
1010201110102010,
3333,
1011202010222010,
0010200022202220,
12121212,
1120201000201120,
2010002211201000,
40300300,
3300,
#GOGOEND
#END
COURSE:Hard
LEVEL:5
SCOREINIT:460
SCOREDIFF:118
#START
20000002,
0,
20000022,
30030030,
2222,
33033040,
10201120,
10201120,
10201120,
10210120,
10201120,
10210340,
00202220,
2020100020202011,
10201120,
10201120,
10201120,
10210120,
10201120,
11210120,
1000222010001000,
10201110,
10200120,
10201110,
10200120,
10201120,
10221120,
10201120,
10221120,
1500,
0008,
33033030,
#GOGOSTART
10201121,
01201121,
01201120,
3333,
60000008,
00201120,
10101120,
1010101011102000,
10201121,
01201121,
01201120,
3336,
,
08001120,
10201120,
33034033,
03403030,
#GOGOEND
11201121,
01211020,
11201121,
01211020,
10110110,
11011020,
10201121,
1122,
10101210,
10101210,
10101210,
10101120,
10110122,
00300222,
30430430,
43043030,
11111111,
11111122,
20202202,
00202202,
0222,
10101110,
10201121,
01201120,
10101120,
1010101011102000,
#GOGOSTART
10201121,
01201121,
01201120,
3336,
0,
08001120,
10201120,
33034030,
10201121,
01201121,
01201120,
3336,
0,
0080000010102220,
10201120,
33034033,
03403030,
40300300,
3300,//437combo
#GOGOEND
,
,
,
#END
COURSE:Normal
LEVEL:5
BALLOON:5,13,5
SCOREINIT:620
SCOREDIFF:173
#START
20000002,
0,
2,
30030030,
,
40040040,
1110,
1110,
11,
1110,
1120,
1125,
,
8,
1110,
1110,
11,
1110,
1120,
1120,
1001,
1001,
1001,
1001,
1001,
1110,
0222,
1011,
10010010,
1500,
0008,
0003,
#GOGOSTART
00101101,
00101101,
0111,
3333,
60000008,
0222,
10101110,
7008,
00101101,
00101101,
0111,
3336,
,
0800000020002000,
1110,
33030033,
03303030,
#GOGOEND
10101110,
10101110,
10101110,
1122,
00100100,
10010010,
0110,
1122,
1011,
0011,
11,
1122,
10050000,
000800000000000,
30030030,
09000000,
00090008,
,
00202202,
00202202,
0222,
10101110,
50000008,
0222,
10101110,
7008,
#GOGOSTART
00101101,
00101101,
0111,
3336,
0,
0800000020002000,
11,
33030030,
00101101,
00101101,
0111,
3336,
0,
0800000020002000,
1110,
33030033,
03303030,
00300300,
3300,//241combo
#GOGOEND
,
,
,
#END
COURSE:Easy
LEVEL:4
BALLOON:3,10,3
SCOREINIT:460
SCOREDIFF:130
#START
20000002,
0,
2,
30030030,
,
40040040,
11,
1,
11,
1110,
12,
1025,
,
8,
11,
1,
11,
1110,
12,
12,
1001,
1001,
1002,
2002,
2001,
1110,
0222,
1011,
10010010,
1500,
0008,
0003,
#GOGOSTART
0110,
0110,
0111,
3333,
60000008,
0222,
1111,
7008,
0110,
0110,
0111,
3336,
,
0800000020002000,
1110,
30030030,
03003030,
#GOGOEND
1011,
11,
1011,
,
00100100,
10010010,
0110,
1122,
1011,
0011,
11,
1122,
10050000,
000800000000000,
30030030,
09000000,
00090008,
,
00202002,
00202002,
0222,
1111,
50000008,
0222,
1111,
7008,
#GOGOSTART
00101001,
00101001,
0111,
3336,
0,
0800000020002000,
11,
30030030,
00101001,
00101001,
0111,
3336,
0,
0800000020002000,
11,
30030030,
03003030,
00300300,
3300,//195combo
#GOGOEND
,
,
,
#END