607 lines
15 KiB
Plaintext
607 lines
15 KiB
Plaintext
//TJADB Project
|
|
TITLE:Hikari no Kanata e -Boss Battle Version-
|
|
TITLEJA:ヒカリノカナタヘ -Boss Battle Version-
|
|
SUBTITLE:--Yoshihito Yano feat. Takayoshi Tanimoto
|
|
BPM:146
|
|
WAVE:Hikari no Kanata e -Boss Battle Version-.ogg
|
|
OFFSET:-13.312
|
|
DEMOSTART:138.217
|
|
|
|
COURSE:Hard
|
|
LEVEL:8
|
|
BALLOON:33,37,43,45,50
|
|
|
|
|
|
#START
|
|
|
|
|
|
000000000000000000000000000000000000000000000000,
|
|
000000000000000000000000000000000000000000000000,
|
|
000000000000000000000000000000000000000000000000,
|
|
000000000000000000000000000000000000000000000000,
|
|
000000000000000000000000000000000000000000000000,
|
|
000000000000000000000000000000000000000000000000,
|
|
000000000000000000000000000000000000000000000000,
|
|
000000000000000000000000000000000000300000000000,
|
|
100200000200100200000200100200000200100000200000,
|
|
100200000200100200000200100200000200100100100000,
|
|
100200000200100200000200100200000200100000200000,
|
|
100200000200100200000200100200000200100100100000,
|
|
100200000200100200000200100200000200100000200000,
|
|
100200000200100200000200100200000200100100100000,
|
|
100200000200100200000200100200000200100000200000,
|
|
100200000200100200000200100200000200100000100100,
|
|
100000200200100000200000100200000200100000200000,
|
|
100000200200100000200000100100000100000000000000,
|
|
100000200200100000200000100200000200100000200000,
|
|
100000200200100000200000200200000200000000000000,
|
|
100000100100100000100000200100000100100000200000,
|
|
100000100100200000100000200100000100200000200000,
|
|
100000100100100000100000200000200200200000200000,
|
|
100100100000100100100000100100100100100000200200,
|
|
100000100100200000100000200100000100200000100000,
|
|
100000100100200000100000200100000100200000100000,
|
|
100000100100200000100000200100000100200000100000,
|
|
100100100000200200200000100100100000200000200200,
|
|
100000200200100000200000100200000200100000200000,
|
|
000000200200100000200000100100000100000000000000,
|
|
100000200200100000200000100200000200100000200000,
|
|
100000200200100000000000200200000200000000000000,
|
|
200000100100100000200000100200000200100000200000,
|
|
200000100100100000200000100200000200100000100000,
|
|
100000100100100000100000200000200200200000200000,
|
|
100100100100200200200000200100000200100000000000,
|
|
900000000000000000000000000000000000000000000000,
|
|
000000000000000000000000000000000000000000000000,
|
|
0000080000000000,
|
|
000000000000000000000000000000000000000000000000,
|
|
900000000000000000000000000000000000000000000000,
|
|
000000000000000000000000000000000000000000000000,
|
|
0000080000000000,
|
|
000000000000000000000000000000000000000000000000,
|
|
000000000000000000000000000000000000000000000000,
|
|
000000000000000000000000000000000000000000000000,
|
|
000000000000000000000000000000000000000000000000,
|
|
000000000000000000000000000000000000000000000000,
|
|
000000000000000000000000000000000000000000000000,
|
|
000000000000000000000000000000000000000000000000,
|
|
000000000000000000000000000000000000000000000000,
|
|
000000000000000000000000000000000000000000000000,
|
|
000000000000000000000000000000000000000000000000,
|
|
000000000000000000000000000000000000000000000000,
|
|
000000000000000000000000000000000000000000000000,
|
|
000000000000000000000000000000000000000000000000,
|
|
|
|
#GOGOSTART
|
|
200200100100200200100100200200100100000200100100,
|
|
200200100100200200100100200000100100200000200000,
|
|
200200100100200200100100200200100100200200100000,
|
|
200200100100200200100100000200100100100000100000,
|
|
|
|
#GOGOEND
|
|
200000100000100100200100000100100000200000100000,
|
|
100100200100000100100000200000100000100100000100,
|
|
200200100000100000200000100100000100200200100000,
|
|
100100200200100000200000100100100100100100100000,
|
|
|
|
#GOGOSTART
|
|
200000100000100100200000000100100000100000200000,
|
|
100200200100000100100000100200000200200000200000,
|
|
100000200000100200200100000100100000200000100100,
|
|
100000200000100100100000200100100000100100000000,
|
|
|
|
#GOGOEND
|
|
100020001000200010002000100020001000200010002000,
|
|
100010002000200010001000100020001000200010002000,
|
|
100010002000200010001000100020001000200010002000,
|
|
100010002000200010001000100020001000200010002000,
|
|
100100200200100100200200100100200200100100200200,
|
|
100100200200100100200200100100200200100100200200,
|
|
100000200200100000200000000000200200000000200100,
|
|
100000200200100000200000000000200100000000200000,
|
|
|
|
#GOGOSTART
|
|
100200200200100200200200100200200200100200200200,
|
|
100200200100200200100200200100200200100000200200,
|
|
100200200200100200200200100200200200100200200200,
|
|
100200200100200200100000200100200200100000000000,
|
|
100200200200100200200200100200200200100200200200,
|
|
100200200100200200100200200100200200100000200200,
|
|
100200200200100200200200100200200200100200200200,
|
|
100200200100200200100200200100000200100000000000,
|
|
|
|
#GOGOEND
|
|
#SCROLL 2
|
|
900000000000000000000000000000000000000000000000,
|
|
000000000000000000000000000000000000000000000000,
|
|
0000000008000000,
|
|
000000000000000000000000000000000000000000000000,
|
|
900000000000000000000000000000000000000000000000,
|
|
000000000000000000000000000000000000000000000000,
|
|
0000000008000000,
|
|
000000000000000000000000000000000000000000000000,
|
|
#SCROLL 1
|
|
000000000000000000000000000000000000000000000000,
|
|
000000000000000000000000000000000000000000000000,
|
|
000000000000000000000000000000000000000000000000,
|
|
000000000000000000000000000000000000000000000000,
|
|
000000000000000000000000000000000000000000000000,
|
|
000000000000000000000000000000000000000000000000,
|
|
000000000000000000000000000000000000000000000000,
|
|
000000000000000000000000000000000000000000000000,
|
|
#MEASURE 3/4
|
|
000000000000000000000000000000000000,
|
|
#MEASURE 4/4
|
|
000000000000000000000000000000000000000000000000,
|
|
#MEASURE 3/4
|
|
000000000000000000000000000000000000,
|
|
#MEASURE 4/4
|
|
000000000000000000000000000000000000000000000000,
|
|
000000000000000000000000000000000000000000000000,
|
|
#MEASURE 2/4
|
|
000000000000000000000000,
|
|
#MEASURE 4/4
|
|
300000000000100000200000100100000100100000200000,
|
|
#MEASURE 3/4
|
|
100100200200100000200000100100100100,
|
|
#MEASURE 4/4
|
|
100000000000100000200000100100000100100000200000,
|
|
#MEASURE 3/4
|
|
100000200200100000000000100100100100,
|
|
#MEASURE 4/4
|
|
100000000000100000200000100100000100100000200000,
|
|
#MEASURE 3/4
|
|
100100200200100000200000100100100100,
|
|
#MEASURE 4/4
|
|
100000000000100000200000100100000100100000200000,
|
|
#MEASURE 3/4
|
|
100100100100200200200200100000000000,
|
|
#MEASURE 4/4
|
|
100000200100000200100000100200200100000200100000,
|
|
#MEASURE 3/4
|
|
100000200100000200100000100200200200,
|
|
#MEASURE 4/4
|
|
100000200100000200100000100200200100000200100000,
|
|
#MEASURE 3/4
|
|
100000200100000200100000100200200200,
|
|
#MEASURE 4/4
|
|
100000100100000100100000200200100200000200100000,
|
|
#MEASURE 3/4
|
|
100000100100000100100000200200200200,
|
|
#MEASURE 4/4
|
|
100100100000100100100000100100100000100100100000,
|
|
100100200000100100200000100100200000100100200000,
|
|
100200200200100200200200100200200200100200200200,
|
|
200010002000100020001000200020001000200010002000,
|
|
#MEASURE 3/4
|
|
100100100100200200200200100000000000,
|
|
#MEASURE 4/4
|
|
100200200100000000100000000000200100200200100000,
|
|
|
|
#GOGOSTART
|
|
#MEASURE 3/4
|
|
#SCROLL 2
|
|
100200200100200200100000100200200100,
|
|
200200100200100200200100200200100000,
|
|
|
|
#GOGOEND
|
|
100200200100200200100000100200200100,
|
|
200200100200100200200100200200100000,
|
|
|
|
#GOGOSTART
|
|
100200200100200200100400100200200100,
|
|
#MEASURE 4/4
|
|
200200100200100200200100200200100200100400100000,
|
|
|
|
#GOGOEND
|
|
100200200100000000200000000000200100200200100000,
|
|
200200100200000200100000100100100200000000100000,
|
|
#SCROLL 4
|
|
900000000000000000000000000000000000000000000000,
|
|
000000000000000000000000000000000000000000000000,
|
|
0000080000000000,
|
|
#MEASURE 2/4
|
|
000000000000000000000000,
|
|
#MEASURE 4/4
|
|
000000000000000000000000000000000000000000000000,
|
|
000000000000000000000000300000000000000000000000,
|
|
|
|
|
|
#END
|
|
|
|
|
|
COURSE:Normal
|
|
LEVEL:7
|
|
BALLOON:33,37,43,45,50
|
|
|
|
|
|
#START
|
|
|
|
|
|
000000000000000000000000000000000000000000000000,
|
|
000000000000000000000000000000000000000000000000,
|
|
000000000000000000000000000000000000000000000000,
|
|
000000000000000000000000000000000000000000000000,
|
|
000000000000000000000000000000000000000000000000,
|
|
000000000000000000000000000000000000000000000000,
|
|
000000000000000000000000000000000000000000000000,
|
|
000000000000000000000000000000000000300000000000,
|
|
100100100000100100100000100100000100100000000000,
|
|
100100100000100100100000100100000100100000000000,
|
|
100100100000100100100000100100000100100000000000,
|
|
100100100000100100100000100000000000400000000000,
|
|
100100100000100100100000100100000100100000000000,
|
|
100100100000100100100000100100000100100000000000,
|
|
100100100000100100100000100100000100100000000000,
|
|
100100100000100100100000100000000000400000000000,
|
|
100100100000100000000000100100000100100000000000,
|
|
100100100000100100100000100000000000000000000000,
|
|
200200200000200000000000200200000200200000000000,
|
|
200200200000200200200000200000000000000000000000,
|
|
100000100100100000100000100000100100100000000000,
|
|
200000200200200000200000200000200200200000000000,
|
|
100000100100100000100000000000200200200000200000,
|
|
100100100000100000000000100100100000100000000000,
|
|
100100100000100100100000100100000100100000000000,
|
|
100100100000100100100000100100000100100000000000,
|
|
100100100000100100100000100100000100000000000000,
|
|
100100100000100100100000100000000000400000000000,
|
|
100100100000100000000000100100000100100000000000,
|
|
100100100000100100100000100000000000000000000000,
|
|
200200200000200000000000200200000200200000000000,
|
|
200200200000200200200000200000000000000000000000,
|
|
100100100000100000000000100100000100100000200000,
|
|
100100100000100000000000200200000200200000000000,
|
|
100100100000100100100000100000000000200000000000,
|
|
200200200000200200200000200200200000200000000000,
|
|
900000000000000000000000000000000000000000000000,
|
|
000000000000000000000000000000000000000000000000,
|
|
08,
|
|
000000000000000000000000000000000000000000000000,
|
|
900000000000000000000000000000000000000000000000,
|
|
000000000000000000000000000000000000000000000000,
|
|
08,
|
|
000000000000000000000000000000000000000000000000,
|
|
000000000000000000000000000000000000000000000000,
|
|
000000000000000000000000000000000000000000000000,
|
|
000000000000000000000000000000000000000000000000,
|
|
000000000000000000000000000000000000000000000000,
|
|
000000000000000000000000000000000000000000000000,
|
|
000000000000000000000000000000000000000000000000,
|
|
000000000000000000000000000000000000000000000000,
|
|
000000000000000000000000000000000000000000000000,
|
|
000000000000000000000000000000000000000000000000,
|
|
000000000000000000000000000000000000000000000000,
|
|
000000000000000000000000000000000000000000000000,
|
|
000000000000000000000000000000000000000000000000,
|
|
|
|
#GOGOSTART
|
|
100100100000100100100000100100100000200000000000,
|
|
100100100000100100100000100100100000200000000000,
|
|
100100100000100100100000100100100000200000200000,
|
|
100100100000100100100000100100100000200000000000,
|
|
|
|
#GOGOEND
|
|
200000100000100100100000100100100000200000100000,
|
|
100100000000100100100000200000100000100100100000,
|
|
100100100000100000200000100100100000200000100000,
|
|
100100100000100000200000100100100100100100100000,
|
|
|
|
#GOGOSTART
|
|
200000100000100100100000100100100000100000200000,
|
|
100100100000100100100000200000200200200000200000,
|
|
100000200000100100100000100100100000200000100100,
|
|
100000200000100100100000200000000100100000000000,
|
|
|
|
#GOGOEND
|
|
100000001000000010000000200000002000000020000000,
|
|
100000001000000010000000200000002000000020000000,
|
|
100000001000000010000000200000002000000020000000,
|
|
100000001000000010000000200000002000000020000000,
|
|
100100100000200200200000100100100000200200200000,
|
|
100100100000200200200000100100100000200200200000,
|
|
100100100000000000200000000000200200000000000100,
|
|
100000200200200000200000000000100100000000000000,
|
|
|
|
#GOGOSTART
|
|
#SCROLL 1.5
|
|
300000000000000000300000000000000000300000000000,
|
|
400000000000000000400000000000000000400000000000,
|
|
300000000000000000300000000000000000300000000000,
|
|
600000000000000000000000000000000008000000000000,
|
|
300000000000000000300000000000000000300000000000,
|
|
400000000000000000400000000000000000400000000000,
|
|
300000000000000000300000000000000000300000000000,
|
|
600000000000000000000000000000000008000000000000,
|
|
#GOGOEND
|
|
900000000000000000000000000000000000000000000000,
|
|
000000000000000000000000000000000000000000000000,
|
|
08,
|
|
000000000000000000000000000000000000000000000000,
|
|
900000000000000000000000000000000000000000000000,
|
|
000000000000000000000000000000000000000000000000,
|
|
08,
|
|
000000000000000000000000000000000000000000000000,
|
|
#SCROLL 1
|
|
000000000000000000000000000000000000000000000000,
|
|
000000000000000000000000000000000000000000000000,
|
|
000000000000000000000000000000000000000000000000,
|
|
000000000000000000000000000000000000000000000000,
|
|
000000000000000000000000000000000000000000000000,
|
|
000000000000000000000000000000000000000000000000,
|
|
000000000000000000000000000000000000000000000000,
|
|
000000000000000000000000000000000000000000000000,
|
|
#MEASURE 3/4
|
|
000000000000000000000000000000000000,
|
|
#MEASURE 4/4
|
|
000000000000000000000000000000000000000000000000,
|
|
#MEASURE 3/4
|
|
000000000000000000000000000000000000,
|
|
#MEASURE 4/4
|
|
000000000000000000000000000000000000000000000000,
|
|
000000000000000000000000000000000000000000000000,
|
|
#MEASURE 2/4
|
|
000000000000000000000000,
|
|
#MEASURE 4/4
|
|
100000000000200000000000100000000000100000200000,
|
|
#MEASURE 3/4
|
|
100000000000100000100000200000000000,
|
|
#MEASURE 4/4
|
|
100000000000200000000000100000000000100000200000,
|
|
#MEASURE 3/4
|
|
100000000000100000000000000000000000,
|
|
#MEASURE 4/4
|
|
100000000000200000000000100000000000100000200000,
|
|
#MEASURE 3/4
|
|
100000000000100000100000100000000000,
|
|
#MEASURE 4/4
|
|
200000000000100000000000200000000000100000000000,
|
|
#MEASURE 3/4
|
|
100000000000200000000000200000000000,
|
|
#MEASURE 4/4
|
|
100000000000100100100000100100000100100000100000,
|
|
#MEASURE 3/4
|
|
100000000000100100100000100000000000,
|
|
#MEASURE 4/4
|
|
200000000000200200200000200200000200200000200000,
|
|
#MEASURE 3/4
|
|
200000000000200000000000000000000000,
|
|
#MEASURE 4/4
|
|
100000000000100100100000100100000100100000100000,
|
|
#MEASURE 3/4
|
|
100000000000100100100000100000000000,
|
|
#MEASURE 4/4
|
|
100100100000100100100000100100100000100100100000,
|
|
100100200000100100200000100100200000100100200000,
|
|
200200200000200200200000200200200000200200200000,
|
|
100010001000100010001000200020002000200020002000,
|
|
#MEASURE 3/4
|
|
100000000000100100100000100000000000,
|
|
|
|
#GOGOSTART
|
|
#MEASURE 4/4
|
|
#SCROLL 1.5
|
|
100000200000100100100000100000200000100100100000,
|
|
#MEASURE 3/4
|
|
200000000000200200200000200000000000,
|
|
100000200000100100200000100000200000,
|
|
|
|
#GOGOEND
|
|
100100200000100000200000100100100000,
|
|
100000200000100100100000000000200000,
|
|
100100200000100000200000100100200000,
|
|
|
|
#GOGOSTART
|
|
#MEASURE 4/4
|
|
100100100000200200200000100100100000200000200000,
|
|
100100100000200200200000100100100000200000200000,
|
|
|
|
#GOGOEND
|
|
100100100000100100100000100100100000100100100000,
|
|
#SCROLL 2
|
|
900000000000000000000000000000000000000000000000,
|
|
000000000000000000000000000000000000000000000000,
|
|
0008,
|
|
#MEASURE 2/4
|
|
000000000000000000000000,
|
|
#MEASURE 4/4
|
|
000000000000000000000000000000000000000000000000,
|
|
000000000000000000000000300000000000000000000000,
|
|
|
|
|
|
#END
|
|
|
|
|
|
COURSE:Easy
|
|
LEVEL:5
|
|
BALLOON:33,37,43,45,50
|
|
|
|
|
|
#START
|
|
|
|
|
|
,
|
|
,
|
|
,
|
|
,
|
|
,
|
|
,
|
|
,
|
|
,
|
|
1111,
|
|
1110,
|
|
1111,
|
|
1110,
|
|
2222,
|
|
2220,
|
|
2222,
|
|
2220
|
|
1111,
|
|
2220,
|
|
0111,
|
|
2220,
|
|
10011010,
|
|
20022020,
|
|
1122,
|
|
0122,
|
|
5000,
|
|
0080,
|
|
,
|
|
,
|
|
0111,
|
|
10111000,
|
|
2222,
|
|
20222000,
|
|
1122,
|
|
0122,
|
|
1111,
|
|
2222,
|
|
9,
|
|
,
|
|
08,
|
|
,
|
|
9,
|
|
,
|
|
08,
|
|
,
|
|
,
|
|
,
|
|
,
|
|
,
|
|
,
|
|
,
|
|
,
|
|
,
|
|
,
|
|
,
|
|
,
|
|
,
|
|
1111,
|
|
1122,
|
|
1111,
|
|
1120,
|
|
0111,
|
|
2222,
|
|
0111,
|
|
00202222,
|
|
1111,
|
|
2222,
|
|
1212,
|
|
1111,
|
|
9,
|
|
,
|
|
,
|
|
08,
|
|
1111,
|
|
0222,
|
|
1212,
|
|
10111000,
|
|
|
|
#GOGOSTART
|
|
30030030,
|
|
40040040,
|
|
|
|
#GOGOEND
|
|
30030030,
|
|
6008,
|
|
|
|
#GOGOSTART
|
|
30030030,
|
|
40040040,
|
|
|
|
#GOGOEND
|
|
30030030,
|
|
6008,
|
|
#SCROLL 1.5
|
|
9,
|
|
0,
|
|
08,
|
|
,
|
|
9,
|
|
0,
|
|
08,
|
|
,
|
|
#SCROLL 1
|
|
,
|
|
,
|
|
,
|
|
,
|
|
,
|
|
,
|
|
,
|
|
,
|
|
#MEASURE 3/4
|
|
,
|
|
#MEASURE 4/4
|
|
,
|
|
#MEASURE 3/4
|
|
,
|
|
#MEASURE 4/4
|
|
,
|
|
,
|
|
#MEASURE 2/4
|
|
,
|
|
#MEASURE 4/4
|
|
11,
|
|
#MEASURE 3/4
|
|
101110,
|
|
#MEASURE 4/4
|
|
11,
|
|
#MEASURE 3/4
|
|
110,
|
|
#MEASURE 4/4
|
|
11,
|
|
#MEASURE 3/4
|
|
001110,
|
|
#MEASURE 4/4
|
|
11,
|
|
#MEASURE 3/4
|
|
110,
|
|
#MEASURE 4/4
|
|
22,
|
|
#MEASURE 3/4
|
|
202220,
|
|
#MEASURE 4/4
|
|
22,
|
|
#MEASURE 3/4
|
|
220,
|
|
#MEASURE 4/4
|
|
10101110,
|
|
#MEASURE 3/4
|
|
002022,
|
|
#MEASURE 4/4
|
|
5000,
|
|
0801,
|
|
1112,
|
|
2250,
|
|
#MEASURE 3/4
|
|
0
|
|
|
|
#GOGOSTART
|
|
08,
|
|
#MEASURE 4/4
|
|
10101110,
|
|
202,
|
|
101011,
|
|
|
|
#GOGOEND
|
|
002
|
|
101011,
|
|
202,
|
|
#MEASURE 4/4
|
|
10101110,
|
|
10201120,
|
|
10201120,
|
|
9,
|
|
,
|
|
0008,
|
|
#MEASURE 2/4
|
|
,
|
|
#MEASURE 4/4
|
|
,
|
|
000000000000000000000000300000000000000000000000,
|
|
|
|
|
|
#END
|
|
|