Files
ESE/09 Namco Original/Knitting High/Knitting High.tja
T
2023-06-15 19:15:39 -05:00

354 lines
14 KiB
Plaintext

//TJADB Project
TITLE:Knitting High
TITLEJA:ニッティング・ハイ
SUBTITLE:--Masako Oogami
BPM:160
WAVE:Knitting High.ogg
OFFSET:-1.806
DEMOSTART:63.297
COURSE:Oni
LEVEL:7
SCOREINIT:650
SCOREDIFF:175
#START
200000000000200000000000200000001000100000000000,
100000000000100000001000100000001000200000000000,
100000001000100000001000200000002000100000002000,
100000000000100000001000100000001000200000000000,
100000001000100000001000200000002000100000002000,
100000000000100000001000100000001000200000000000,
100000001000100000001000200000002000100000000000,
300000001000100000000000300000001000100000000000,
300000000000000000000300000000002000200000002000,
100000002000200000001000000000002000200000002000,
100000002000200000001000000000002000200000002000,
100000000000100000000000100000001000100000001000,
000000000000200000001000000000002000200000002000,
100000002000200000001000000000002000200000002000,
100000002000200000001000000000002000200000002000,
100000000000100000000000100000001000100000001000,
000000000000200000001000000000000000100000001000,
000000001000100000000000100000000000200000002000,
000000002000200000000000200000000000200000001000,
000000001010200000001000000000001010200000001000,
000000002000100000002000100000002000100000001000,
000000001000100000000000100000000000200000002000,
000000002000200000000000200000000000200000001000,
000000000000101010001000202020002000100000000000,
200000000000300000000000000000000000300000000000,
100010001000100000001000100000001000100000001000,
200000001000000000001000000000001000000000002000,
100000001010100000002000100000001000000000002000,
100000001000200020001000100000001000200000002000,
100000000000100000002000100000002000100000002000,
000000002000100000002000100000002000100000000000,
100000001010100000002000100000002000000000001000,
100000002000100000002000100000002000100000000000,
100010002000100000000000200020001000200000000000,
100010002000100000000000100010001000200020002000,
100010002000100000000000200020001000200000000000,
200010001000200000000000100010002000200020001000,
100000000000200000001000200000001000200000001000,
100000002000100000002000100000000000200000002000,
300000002000200000003000000000003000000000002000,
300000000000000000000000000000000000000000000000,
#GOGOSTART
100000000000100000002000100000001000200000002000,
100000001000200000002000100000002000200000000000,
100000000000100000000000100000002000200000001000,
000000001000200000000000100000000000200000000000,
100010002000100000002000100010002000100000002000,
100010002000100000002000000000003000000000000000,
200020001000200000001000200020001000200000001000,
200020001000200000001000000000003000000000001000,
000000001000200000001000100000001000200000001000,
100000001000200000001000100000001000200000000500,
000000000000000000000000000800000000000000000000,
300000000000300000000000300000000000300000000000,
100020001000200000002000100020001000200000002000,
100000002000100000002000100000001000200000001000,
100000002020200000001000100000002020200000001010,
200000002020100000001010200000000000300000000000,
#GOGOEND
000000000000100000002000100000001000200000000000,
100000002000100000002000100000001000200000001000,
000000000000100000002000100000001000200000000000,
300000000000000000000000101010001000202020002000,
000000000000100000002000100000001000200000000000,
100000002000100000002000100000001000200020002000,
100000000000100000002000100000001000200020001000,
100000002000100000002000100000001000200020002000,
100000000000100000002000100000001000200020001000,
100000002000100000002000100000001000200020002000,
100010001000200000002000100010001000200000002000,
101020001000200000001000000000000000300000000000,
#END
COURSE:Hard
LEVEL:6
BALLOON:7,7
SCOREINIT:660
SCOREDIFF:185
#START
200000000000200000000000200000001000100000000000,
100000000000100000001000100000001000200000000000,
100000001000100000001000100000002000200000000000,
100000000000100000001000100000001000200000000000,
100000001000100000001000100000002000200000000000,
100000000000100000001000100000001000200000000000,
100000001000100000001000100000002000200000000000,
300000001000100000000000300000001000100000000000,
300000000000000000003000000000000000000000000000,
100000000000200000001000000000000000000000000000,
100000000000200000001000000000000000000000000000,
100000000000100000000000100000001000100000001000,
000000000000200000001000000000000000000000000000,
100000000000200000001000000000000000000000000000,
100000000000200000001000000000000000000000000000,
100000000000100000000000100000001000100000001000,
000000000000200000001000000000000000100000001000,
000000001000100000000000100000000000200000002000,
000000002000200000000000200000000000100000001000,
000000001000100000001000000000001000100000001000,
000000000000000000000000000000000000100000001000,
000000001000100000000000100000000000200000002000,
000000002000200000000000200000000000100000001000,
000000000000700000000000000000008000000000000000,
200000000000300000000000000000000000300000000000,
100010001000100000000000100000000000100000000000,
200020002000200000000000200000000000200000000000,
100010001000100000000000100000000000100000000000,
200020002000200000000000200000000000200000000000,
100000000000100000001000100000001000100000000000,
200000002000200000002000200000002000200000000000,
100000001000100000001000100000002000000000000000,
100000001000100000001000100000002000000000000000,
100010001000100000000000200020002000200000000000,
300000000000300000000000000000000000000000000000,
100010001000100000000000200020002000200000000000,
400000000000400000000000000000000000000000000000,
100000000000200000001000100000001000100000000000,
100000002000200000002000200000000000200000000000,
100000000000000000001000000000001000000000001000,
100000000000000000000000000000000000000000000000,
#GOGOSTART
100000000000100000001000100000001000100000000000,
200000002000200000002000200000002000200000000000,
100000000000100000000000100000002000200000001000,
000000002000200000000000100000000000000000000000,
100010001000100000000000100010001000100000000000,
100010001000100000000000000000003000000000000000,
200020002000200000000000200020002000200000000000,
200020002000200000000000000000003000000000001000,
000000001000100000001000100000001000100000000000,
200000002000200000002000200000002000200000005000,
000000000000000000000000000080000000000000000000,
300000000000300000000000300000000000300000000000,
100010001000100000000000100010001000100000000000,
100000002000200000002000200000002000200000001000,
100000002000200000001000100000002000200000000000,
300000000000300000000000300000000000000000000000,
#GOGOEND
000000000000100000001000100000001000200000000000,
100000001000100000001000100000001000200000000000,
000000000000100000001000100000001000200000000000,
300000000000000000000000700000000000000000008000,
000000000000100000001000100000001000200000000000,
100000001000100000001000100000002000200000000000,
100000000000100000001000100000001000200000000000,
100000001000100000001000100000002000200000000000,
100000000000100000001000100000001000200000000000,
100000001000100000001000100000002000200000000000,
100010001000100000000000200020002000200000000000,
100010001000100000001000000000000000300000000000,
#END
COURSE:Normal
LEVEL:4
BALLOON:7,10,3,3,3,4
SCOREINIT:880
SCOREDIFF:290
#START
200000000000200000000000200000000000100000000000,
000000000000100000000000100000000000000000000000,
100000000000100000000000200000000000200000000000,
100000000000100000000000100000000000000000000000,
100000000000100000000000200000000000200000000000,
100000000000100000000000100000000000000000000000,
100000000000100000000000200000000000200000000000,
300000000000000000000000300000000000000000000000,
300000000000000000003000000000000000000000000000,
100000000000000000001000000000000000000000000000,
100000000000000000001000000000000000000000000000,
100000000000100000000000100000000000100000000000,
000000000000200000002000000000000000000000000000,
100000000000000000001000000000000000000000000000,
100000000000000000001000000000000000000000000000,
100000000000100000000000100000000000100000000000,
000000000000200000002000000000000000000000000000,
000000000000100000000000000000000000100000000000,
000000000000200000000000000000000000200000001000,
000000000000200000001000000000000000200000001000,
000000000000000000000000000000000000000000000000,
000000000000100000000000000000000000100000000000,
000000000000200000000000000000000000200000001000,
000000000000700000000000000000000000000000000080,
000000000000300000000000000000000000300000000000,
100000000000100000000000100000000000100000000000,
200000000000200000000000200000000000200000000000,
100000000000100000000000100000000000100000000000,
100000000000000000000000200000000000000000000000,
100000000000100000000000100000000000100000000000,
200000000000200000000000200000000000200000000000,
100000000000100000000000100000000000100000000000,
100000000000000000000000200000000000000000000000,
100000000000100000000000200000000000200000000000,
300000000000300000000000000000000000000000000000,
200000000000200000000000100000000000100000000000,
400000000000400000000000000000000000000000000000,
100000000000200000000000100000000000200000000000,
100000000000100000000000200000000000200000000000,
900000000000000000000000000000000000000000000000,
800000000000000000000000000000000000000000000000,
#GOGOSTART
100000000000100000000000200000000000200000000000,
100000000000100000000000200000000000200000000000,
100000000000100000000000200000000000200000000000,
000000000000000000000000000000000000000000000000,
500000000080000000000000500000000080000000000000,
500000000080000000000000000000000000000000000000,
700000000000800000000000700000000000800000000000,
700000000000800000000000000000000000000000000000,
100000000000100000000000200000000000200000000000,
100000000000100000000000200000000000200000000000,
500000000000000000000000000080000000000000000000,
300000000000000000000000300000000000000000000000,
100000000000200000000000100000000000200000000000,
100000000000100000000000200000000000200000000000,
100000000000000000000000100000000000000000000000,
300000000000300000000000300000000000000000000000,
#GOGOEND
000000000000100000000000100000000000000000000000,
100000000000100000000000200000000000200000000000,
100000000000100000000000100000000000000000000000,
300000000000000000000000700000000000000000008000,
000000000000100000000000100000000000000000000000,
100000000000100000000000200000000000200000000000,
100000000000100000000000100000000000000000000000,
100000000000100000000000200000000000200000000000,
100000000000100000000000100000000000000000000000,
100000000000100000000000200000000000200000000000,
300000000000000000000000300000000000000000000000,
500000000000000000000080000000000000300000000000,
#END
COURSE:Easy
LEVEL:4
BALLOON:4,6,2,2,2
SCOREINIT:760
SCOREDIFF:330
#START
000000000000000000000000000000000000000000000000,
000000000000100000000000100000000000000000000000,
100000000000100000000000000000000000000000000000,
000000000000100000000000100000000000000000000000,
100000000000100000000000000000000000000000000000,
000000000000100000000000100000000000000000000000,
100000000000100000000000000000000000000000000000,
300000000000000000000000300000000000000000000000,
300000000000000000000000000000000000000000000000,
100000000000000000001000000000000000000000000000,
100000000000000000001000000000000000000000000000,
100000000000100000000000100000000000100000000000,
000000000000000000000000000000000000000000000000,
100000000000000000001000000000000000000000000000,
100000000000000000001000000000000000000000000000,
100000000000100000000000100000000000100000000000,
000000000000000000000000000000000000000000000000,
000000000000100000000000000000000000100000000000,
000000000000200000000000000000000000200000000000,
500000000000000000000000000000000000000000000080,
000000000000000000000000000000000000000000000000,
000000000000100000000000000000000000100000000000,
000000000000200000000000000000000000200000000000,
000000000000700000000000000000000000000000000080,
000000000000300000000000000000000000300000000000,
100000000000100000000000100000000000000000000000,
100000000000000000000000100000000000000000000000,
100000000000100000000000100000000000000000000000,
100000000000000000000000100000000000000000000000,
200000000000200000000000200000000000000000000000,
200000000000000000000000200000000000000000000000,
100000000000100000000000100000000000000000000000,
100000000000000000000000100000000000000000000000,
100000000000100000000000100000000000100000000000,
300000000000300000000000000000000000000000000000,
200000000000200000000000200000000000200000000000,
400000000000400000000000000000000000000000000000,
100000000000000000000000100000000000000000000000,
100000000000100000000000100000000000000000000000,
900000000000000000000000000000000000000000000000,
800000000000000000000000000000000000000000000000,
#GOGOSTART
100000000000000000000000200000000000000000000000,
100000000000000000000000200000000000000000000000,
100000000000100000000000100000000000100000000000,
000000000000000000000000000000000000000000000000,
500000000080000000000000500000000080000000000000,
500000000080000000000000000000000000000000000000,
700000000000800000000000700000000000800000000000,
700000000000800000000000000000000000000000000000,
100000000000000000000000200000000000000000000000,
100000000000000000000000200000000000000000000000,
500000000000000000000000000080000000000000000000,
300000000000000000000000300000000000000000000000,
100000000000100000000000100000000000100000000000,
200000000000200000000000200000000000000000000000,
100000000000000000000000100000000000000000000000,
300000000000300000000000300000000000000000000000,
#GOGOEND
000000000000100000000000100000000000000000000000,
100000000000100000000000000000000000000000000000,
000000000000100000000000100000000000000000000000,
300000000000000000000000500000000000000080000000,
000000000000100000000000100000000000000000000000,
100000000000100000000000100000000000100000000000,
000000000000100000000000100000000000000000000000,
100000000000100000000000100000000000100000000000,
000000000000100000000000100000000000000000000000,
100000000000100000000000100000000000100000000000,
300000000000000000000000300000000000000000000000,
500000000000000080000000000000000000300000000000,
#END