Files
ESE/09 Namco Original/Love You☆Don-chan/Love You☆Don-chan.tja
T
2023-06-15 19:15:39 -05:00

407 lines
15 KiB
Plaintext

//TJADB Project
TITLE:Love You☆Don-chan
TITLEJA:ラブユー☆どんちゃん
SUBTITLE:--Keiichi Okabe feat. Kaori Murosawa
BPM:130
WAVE:Love You☆Don-chan.ogg
OFFSET:-0.033
DEMOSTART:84.023
COURSE:Edit
LEVEL:8
SCOREINIT:700
SCOREDIFF:188
#START
100000000000100000000000200010000010100000100000,
000000000000000000100000200000000010100000100000,
100000000000100000000000200010000010100000100000,
000000000000000000100000200000000010100000100000,
100000000000000000000000000000000000000000000000,
000000000020200000200000000020000020200000200000,
100000000020100000100000200000000010100000100000,
000000000010100000100000200010000010100000100000,
100000000020100000100000200000000010100000100000,
000000000010100000100000200010000010100000200000,
100000000010200000100000200000000010100000100000,
000000000010100000100000200010000010100000200000,
100000000010200000100000200000100000000000500000,
000000000000000000000000000000000000000008000000,
100000200000100000200000200010000010100000100000,
000000000000000000100010200000000020200000200000,
#GOGOSTART
100000000010100000200000100000000020200000200000,
100000000020200000200000100020100000200000200000,
000020200000200000100000000000100000200000100000,
000000100000200000100020100000100000200000200000,
100000000020100000200000100000000010200000200000,
100000000020100000200000100020100000200000200000,
000010200000200000100000000000100000200000100000,
000000100000200000100020100000100000200000200000,
100000000020100000200000100000200010200000200000,
100000000020100000200000100020100000200000200000,
000010200000200000100000000000100000200000100000,
000000100000200000100020100000100000200000200000,
100000000020100000200000100000200010200000200000,
100000000020100000200000100020100000200000200000,
000010200000200000100000000000100000200000100000,
000010200000200000100010200000000000400000000000,
#GOGOEND
100000200000100000200000200010000010100000100000,
000000000000000000100010200000000020200000200000,
100000000020100000200000000000000010200000100000,
000000100020100000100000000000100020200000000000,
100000000020200000200000000000000020200000100000,
000000100020100000100000000000100020200000200000,
100000000010200000200000000000000010200000100000,
000000100020100000100000000000100020200000000000,
100000000020200000100000000000100000200000500000,
000000000000000000000000000000000000000008000000,
100000200000100000200000200010000010100000100000,
000000000000000000100010200000000020200000200000,
#GOGOSTART
100000000020100000200000100000000010200000200000,
100000000020100000200000100020100020100000200000,
000010200000200000100000000000100000200000100000,
000000100000200000100020100000100000200000200000,
100000000020100000200000100000200010200000200000,
100000000020100000200000100020100020100000200000,
000010200000200000100000000000100000200000100000,
000000100000200000100020100000100000200000200000,
100000000020100000200000100000200010200000200000,
100000200010200000200000100020100020100000200000,
000010200000200000100000000000100020100000200000,
000010200000200000100020100000100000200000200000,
100000000020100000200000100000200010200000200000,
100000200010200000200000100020100020100000200000,
000010200000200000100000000000100020100000200000,
000010200000200000100010200000000000400000000000,
#GOGOEND
#END
COURSE:Oni
LEVEL:8
SCOREINIT:610
SCOREDIFF:160
#START
100000200000100000200000200100000100100000100000,
000000000000000000100100200000000200200000200000,
100000200000100000200000200100000100100000100000,
000000000000000000100100200000000200200000200000,
100000000000000000000000000000000000000000000000,
000000000200100000200000000200000200100000200000,
100000000200100000100000200000000200100000100000,
000000100200100000100000200100000100100000200000,
100000000200100000100000200000000200100000100000,
000000100200100000100000200100000100100000200000,
100000000100200000100000200000000200100000100000,
000000100200100000100000200100000100100000200000,
100000000100200000200000100000200100100000500000,
000000000000000000000000000000000000000008000000,
100000200000100000200000200100000100100000100000,
000000000000000000100100200000000100200000200000,
#GOGOSTART
100000100100100000200000100100100100200000200000,
100000200100200000200000100200100000200000200000,
000100200000200000000000000000100200100000100000,
000200100000200000100200100000100000200000200000,
100000100100100000200000100100100100200000200000,
100000200100200000200000100200100000200000200000,
000100200000200000000000000000100200100000100000,
000200100000200000200100200000100000200000200000,
100000100100200000200000100200100100200000200000,
100000200100200000200000100200100000200000200000,
000200100000200000000000000000100200100000100000,
000100200000200000200100200000100000200000200000,
100000100100200000200000100200100100200000200000,
100000200100200000200000100200100000200000200000,
000200100000200000000000000000100200100000100000,
000100200000200000100100200000000000400000000000,
#GOGOEND
100000200000100000200000200100000100100000100000,
000000000000000000100100200000000100200000200000,
100000000100200000200000000000200100100000100000,
000000100100100000100100000100100100200000200000,
100000000100200000200000000000200100100000100000,
000000100100100000100100000200100100200000200000,
100000000200100000200000000000200100100000100000,
000000100200100000100100000100100100200000200000,
100000000200100000200000000000200100100000500000,
000000000000000000000000000000000000000008000000,
100000200000100000200000200100000100100000100000,
000000000000000000100100200000000100200000200000,
#GOGOSTART
100000100100200000200200100200100100200000200000,
100000200100200000200000100200200100200000200000,
000100200000200000000000000000100200100000100000,
000200100000200000200100200100100100200000200000,
100000100100200000200200100200100100200000200000,
100000200100200000200000100200200100200000200000,
000100200000200000000000000000100200100000100000,
000200100000200000200100200100100100200000200000,
100000100100200000200100100200100100200000200000,
100000200100200000200000200100100200100000200000,
000200100000200000000000000000100200100000100000,
000100200000200000200100200100100100200000200000,
100000100100200000200100100200100100200000200000,
100000200100200000200000200100100200100000200000,
000200100000200000000000000000100200100000100000,
000100200000200000100100200000000000400000000000,
#GOGOEND
#END
COURSE:Hard
LEVEL:6
SCOREINIT:560
SCOREDIFF:158
#START
100000000000100000000000200000000100100000100000,
000000000000000000100000200000000200200000200000,
100000000000100000000000200000000100100000100000,
000000000000000000100000200000000200200000200000,
100000000000000000000000000000000000000000000000,
000000000200200000200000000200000200200000000000,
100000000000100000100000200000000100100000100000,
000000100100100000100000200000000000000000000000,
100000000000100000100000200000000100100000100000,
000000100100100000100000200000000000000000000000,
100000000000100000100000200000000100100000100000,
000000100100100000100000200000000000000000000000,
100000000000100000200000000000200200200000500000,
000000000000000000000000000000000000000800000000,
100000000000100000000000200000000100100000100000,
000000000000000000100100100000000000200000000000,
#GOGOSTART
100000100100100000000000100100100100100000000000,
100000100100100000000000100100100000200000000000,
100000100100100000000000000000100000200000100000,
000000100100100000000000100100100000200000000000,
100000100100100000000000100100100100100000000000,
100000100100100000000000100100100000200000000000,
100000100100100000000000000000100000200000100000,
000000100100100000000000100100100000200000000000,
100000100100100000000000100100100100100000000000,
100000100100100000100000100100100000200000000000,
100000100100100000000000000000100000200000100000,
000000100100100000000000100100100000200000000000,
100000100100100000000000100100100100100000000000,
100000100100100000100000100100100000200000000000,
100000100100100000000000000000100000200000100000,
000000100100100000000000300000000000400000000000,
#GOGOEND
100000000000100000000000200000000100100000100000,
000000000000000000100000200000000200200000200000,
100000000100100000100000000000000200200000200000,
000000100100100000100000100000100000200000000000,
100000000100100000200000000000000200200000200000,
000000100100100000100000100000100000200000000000,
100000000100100000200000000000000200200000200000,
000000100100100000100000100000200000200000000000,
100000000100100000100000000000200200200000500000,
000000000000000000000000000000000800000000000000,
100000000000100000000000200000000100100000100000,
000000000000000000100100100000000000200000000000,
#GOGOSTART
100000100100100000100000100100100100100000000000,
100000100100100000100000100100100000200000000000,
100000100100100000000000000000100000200000100000,
000000100100100000000000100100100000200000000000,
100000100100100000100000100100100100100000000000,
100000100100100000100000100100100000200000000000,
100000100100100000000000000000100000200000100000,
000000100100100000000000100100100000200000000000,
100000100100100000200000100100100100100000200000,
100000100100100000200000100100100000200000000000,
100000100100100000000000000000100000200000100000,
000000100100100000000000100100100000200000000000,
100000100100100000200000100100100100100000200000,
100000100100100000200000100100100000200000000000,
100000100100100000000000000000100000200000100000,
000000100100100000000000400000000000400000000000,
#GOGOEND
#END
COURSE:Normal
LEVEL:6
SCOREINIT:770
SCOREDIFF:245
#START
100000000000100000000000200000000000000000100000,
000000000000000000100000200000000000000000000000,
100000000000100000000000200000000000000000100000,
000000000000000000100000200000000000000000000000,
100000000000000000000000000000000000000000000000,
000000000000000000000000000000000000000000000000,
100000000000100000200000000000000000000000100000,
000000100000000000100000100000000000200000000000,
100000000000200000100000000000000000000000100000,
000000100000000000100000100000000000200000000000,
100000000000100000200000000000000000000000100000,
000000100000000000100000100000000000200000000000,
100000000000200000100000000000100000000000500000,
000000000000000000000000000000800000000000000000,
100000000000100000000000200000000000000000100000,
000000000000000000100000200000000000000000000000,
#GOGOSTART
100000000000100000000000100000000000100000100000,
000000100000200000000000200000000000000000000000,
100000000000200000100000000000100000100000100000,
000000100000000000000000100000000000200000000000,
100000000000100000000000100000000000100000100000,
000000100000200000000000200000000000000000000000,
100000000000200000100000000000100000100000100000,
000000100000000000000000100000000000200000000000,
100000100000100000000000100000000000100000100000,
000000100000200000000000200000000000000000000000,
100000000000200000100000000000100000100000100000,
000000100000200000000000100000000000200000000000,
100000100000100000000000100000000000100000100000,
000000100000200000000000200000000000000000000000,
100000000000200000100000000000100000100000100000,
000000100000200000000000300000000000400000000000,
#GOGOEND
100000000000100000000000200000000000000000100000,
000000000000000000100000200000000000000000000000,
100000000000100000200000000000000000200000100000,
000000100000100000100000000000100000200000000000,
100000000000200000100000000000000000200000100000,
000000100000100000100000000000100000200000000000,
100000000000100000200000000000000000200000100000,
000000100000100000100000000000100000200000000000,
100000000000200000100000000000100000200000500000,
000000000000000000000000000000800000000000000000,
100000000000100000000000200000000000000000100000,
000000000000000000100000200000000000000000000000,
#GOGOSTART
100000100000100000000000100000000000100000100000,
000000100000200000000000100000000000200000000000,
100000000000200000100000000000100000100000100000,
000000100000200000000000100000000000200000000000,
100000100000100000000000100000000000100000100000,
000000100000200000000000100000000000200000000000,
100000000000200000100000000000100000100000100000,
000000100000200000000000100000000000200000000000,
100000100000100000000000100000000000100000100000,
000000100000200000000000100000000000200000000000,
100000000000200000100000000000100000200000100000,
000000100000200000000000100000000000200000000000,
100000100000100000000000100000000000100000100000,
000000100000200000000000100000000000200000000000,
100000000000200000100000000000100000200000100000,
000000100000200000000000300000000000300000000000,
#GOGOEND
#END
COURSE:Easy
LEVEL:4
SCOREINIT:570
SCOREDIFF:200
#START
100000000000100000000000200000000000000000100000,
000000000000000000000000200000000000000000000000,
100000000000100000000000200000000000000000100000,
000000000000000000000000200000000000000000000000,
100000000000000000000000000000000000000000000000,
000000000000000000000000000000000000000000000000,
100000000000100000100000000000000000000000000000,
000000100000000000100000100000000000200000000000,
100000000000100000100000000000000000000000000000,
000000100000000000100000100000000000200000000000,
100000000000100000100000000000000000000000000000,
000000100000000000100000100000000000200000000000,
100000000000100000100000000000100000000000500000,
000000000000000000000000000000800000000000000000,
100000000000100000000000200000000000000000100000,
000000000000000000000000000000000000000000000000,
#GOGOSTART
100000000000000000100000100000000000200000000000,
100000000000100000000000100000000000000000000000,
100000000000000000100000100000000000200000000000,
100000000000000000000000000000000000000000000000,
100000000000000000100000100000000000200000000000,
100000000000100000000000100000000000000000000000,
100000000000000000100000100000000000200000000000,
100000000000000000000000000000000000000000000000,
100000000000000000100000100000000000200000000000,
100000100000100000000000100000000000000000000000,
100000000000000000100000100000000000200000000000,
100000000000000000000000000000000000000000000000,
100000000000000000100000100000000000200000000000,
100000100000100000000000100000000000000000000000,
100000000000000000100000100000000000200000000000,
100000000000000000000000300000000000300000000000,
#GOGOEND
100000000000100000000000200000000000000000100000,
000000000000000000000000200000000000000000000000,
100000000000100000100000000000000000200000000000,
000000100000000000100000100000000000200000000000,
100000000000100000100000000000000000200000000000,
000000100000000000100000100000000000200000000000,
100000000000100000100000000000000000200000000000,
000000100000000000100000100000000000200000000000,
100000000000100000100000000000100000100000500000,
000000000000000000000000000000800000000000000000,
300000000000000000000000000000000000000000000000,
000000000000000000000000000000000000000000000000,
#GOGOSTART
100000000000000000100000100000000000200000000000,
100000100000100000000000200000000000000000000000,
100000000000000000100000100000000000200000000000,
100000000000000000000000000000000000000000000000,
100000000000000000100000100000000000200000000000,
100000100000100000000000200000000000000000000000,
100000000000000000100000100000000000200000000000,
100000000000000000000000200000000000200000000000,
100000000000000000100000100000000000200000000000,
100000100000100000000000200000000000000000000000,
100000000000000000100000100000000000200000000000,
100000000000000000000000200000000000200000000000,
100000000000000000100000100000000000200000000000,
100000100000100000000000200000000000000000000000,
100000000000000000100000100000000000200000000000,
100000100000100000000000300000000000300000000000,
#GOGOEND
#END