382 lines
9.9 KiB
Plaintext
382 lines
9.9 KiB
Plaintext
//TJADB Project
|
|
TITLE:Magical Little Spaceship
|
|
TITLEJA:マジカル・リトル・スペースシップ
|
|
SUBTITLE:--polymoog & ELEKTEL
|
|
BPM:148.5
|
|
WAVE:Magical Little Spaceship.ogg
|
|
OFFSET:-1.805
|
|
DEMOSTART:66.450
|
|
|
|
COURSE:Oni
|
|
LEVEL:7
|
|
SCOREINIT:550
|
|
SCOREDIFF:130
|
|
|
|
|
|
#START
|
|
|
|
|
|
1000201110002000,
|
|
10210220,
|
|
1022202010002000,
|
|
1000201000111000,
|
|
1000201110102220,
|
|
10210212,
|
|
100020110002011,
|
|
1000201000222000,
|
|
1011102000102010,
|
|
0022002000220020,
|
|
1011102000102000,
|
|
1022202010101000,
|
|
1022201000102010,
|
|
0022002010220020,
|
|
1011101000201020,
|
|
1022002010221000,
|
|
1011201000102010,
|
|
1022002010220020,
|
|
1011102000102020,
|
|
1022002010221020,
|
|
1022201000102010,
|
|
1022002010104000,
|
|
3,
|
|
2022201020201100,
|
|
1110202010110000,
|
|
0022222010110100,
|
|
2002002011100000,
|
|
1022201010201000,
|
|
2220201010110000,
|
|
0022111010220100,
|
|
1001001022200000,
|
|
1011201010201000,
|
|
201102010201110,
|
|
0020100011102010,
|
|
2011102010102220,
|
|
0010200011102220,
|
|
1011102000201110,
|
|
12110022,
|
|
500000000000000000000000000000000000000000000008,
|
|
,
|
|
2022201000102020,
|
|
21210022,
|
|
500000000000000000000000000000000000000000000008,
|
|
,
|
|
|
|
#GOGOSTART
|
|
1011102000201011,
|
|
1022102210102000,
|
|
1011102000202011,
|
|
1022102210102000,
|
|
30230231,
|
|
1000400011100050,
|
|
000000000000000000000000000000000008000000000000,
|
|
1010101030301100,
|
|
|
|
#GOGOEND
|
|
1010202000002011,
|
|
1010200000102022,
|
|
10210122,
|
|
1011101000221020,
|
|
11120120,
|
|
1011201020100020,
|
|
1000201110200020,
|
|
10120110,
|
|
2000002000222000,
|
|
|
|
#GOGOSTART
|
|
1011102000221010,
|
|
1022201110102000,
|
|
1011102000222010,
|
|
1022201110201000,
|
|
3022203022203011,
|
|
1000400011100020,
|
|
1011101110201000,
|
|
2011102220101000,
|
|
1022201110201000,
|
|
1011201120102000,
|
|
1022102210221020,
|
|
1022102022221111,
|
|
|
|
#GOGOEND
|
|
|
|
|
|
#END
|
|
|
|
|
|
COURSE:Hard
|
|
LEVEL:5
|
|
SCOREINIT:600
|
|
SCOREDIFF:160
|
|
|
|
|
|
#START
|
|
|
|
|
|
10221020,
|
|
10210000,
|
|
10211020,
|
|
10210110,
|
|
10211020,
|
|
10210110,
|
|
10211020,
|
|
10210220,
|
|
10210021,
|
|
0220,
|
|
10211020,
|
|
1220,
|
|
10210021,
|
|
00222000,
|
|
10211020,
|
|
1221,
|
|
11210020,
|
|
11210000,
|
|
11210022,
|
|
1210,
|
|
12210022,
|
|
12210040,
|
|
3,
|
|
2022200020000000,
|
|
1010202010110000,
|
|
0020200010110100,
|
|
2002002010100000,
|
|
11,
|
|
2020201010110000,
|
|
0020200010110100,
|
|
1001001020200000,
|
|
1110,
|
|
12020202,
|
|
0112,
|
|
12020211,
|
|
0110,
|
|
10110021,
|
|
10110020,
|
|
500000000000000000000000000000000000000000000008,
|
|
,
|
|
20110020,
|
|
20110020,
|
|
500000000000000000000000000000000000000000000008,
|
|
,
|
|
|
|
#GOGOSTART
|
|
1010102000001011,
|
|
1102,
|
|
1010102000002011,
|
|
1102,
|
|
30130130,
|
|
00401105,
|
|
000000000000000000000000000000000000000000000008,
|
|
,
|
|
|
|
#GOGOEND
|
|
10201021,
|
|
11101022,
|
|
10210022,
|
|
11010212,
|
|
10120020,
|
|
11202102,
|
|
10212202,
|
|
10010010,
|
|
20020220,
|
|
|
|
#GOGOSTART
|
|
1011102000102010,
|
|
1212,
|
|
1011102000102010,
|
|
10201110,
|
|
30130130,
|
|
00401102,
|
|
1011101010101000,
|
|
2022202020202000,
|
|
1011101020202000,
|
|
1011102020202000,
|
|
1011102010101000,
|
|
2022202030303030,
|
|
|
|
#GOGOEND
|
|
|
|
|
|
#END
|
|
|
|
|
|
COURSE:Normal
|
|
LEVEL:4
|
|
SCOREINIT:620
|
|
SCOREDIFF:140
|
|
|
|
|
|
#START
|
|
|
|
|
|
100000000000000000000000100000000000000000000000,
|
|
100000000000000000000000000000000000000000000000,
|
|
100000000000000000000000100000000000000000000000,
|
|
100000000000000000000000000000000000000000000000,
|
|
100000000000000000000000100000000000000000000000,
|
|
100000000000000000000000000000000000000000000000,
|
|
100000000000000000000000100000000000000000000000,
|
|
100000000000000000000000000000000000000000000000,
|
|
100000000000100000000000000000000000000000000000,
|
|
100000000000100000000000000000000000000000000000,
|
|
100000000000000000000000200000000000000000000000,
|
|
100000000000000000000000100000000000000000000000,
|
|
100000000000100000000000000000000000000000000000,
|
|
200000000000200000000000000000000000000000000000,
|
|
100000000000000000000000200000000000000000000000,
|
|
100000000000000000000000200000000000100000000000,
|
|
100000000000100000000000100000000000000000000000,
|
|
100000000000100000000000100000000000000000000000,
|
|
100000000000000000000000200000000000000000000000,
|
|
100000000000200000000000100000000000000000000000,
|
|
100000000000100000000000200000000000000000000000,
|
|
100000000000100000000000200000000000000000000000,
|
|
300000000000000000000000000000000000000000000000,
|
|
200000200000200000000000200000000000000000000000,
|
|
100000000000000000000000100000000000000000000000,
|
|
000000000000100000000000100000000000000000000000,
|
|
200000000000000000000000200000000000000000000000,
|
|
100000000000100000000000100000000000000000000000,
|
|
100000000000000000000000100000000000000000000000,
|
|
000000000000100000000000200000000000000000000000,
|
|
100000000000000000000000200000000000000000000000,
|
|
100000000000200000000000100000000000000000000000,
|
|
200000000000000000200000000000000000200000200000,
|
|
000000000000100000000000100000000000000000000000,
|
|
200000000000000000200000000000000000200000200000,
|
|
000000000000100000000000100000000000000000000000,
|
|
100000000000100000100000000000000000000000000000,
|
|
100000000000100000100000000000000000000000000000,
|
|
500000000000000000000000000000000000000000000080,
|
|
000000000000000000000000000000000000000000000000,
|
|
200000000000200000200000000000000000000000000000,
|
|
200000000000200000200000000000000000000000000000,
|
|
500000000000000000000000000000000000000000000080,
|
|
000000000000000000000000000000000000000000000000,
|
|
#GOGOSTART
|
|
100000000000000000000000200000000000100000100000,
|
|
100000000000100000000000000000000000100000000000,
|
|
100000000000000000000000200000000000100000100000,
|
|
100000000000100000000000000000000000200000000000,
|
|
300000000000000000300000000000000000300000000000,
|
|
000000000000000000000000100000100000000000500000,
|
|
000000000000000000000000000000000000000000000080,
|
|
000000000000000000000000000000000000000000000000,
|
|
#GOGOEND
|
|
100000000000000000000000000000000000200000100000,
|
|
100000000000100000000000000000000000200000000000,
|
|
100000000000000000000000200000000000000000000000,
|
|
100000100000000000200000000000000000000000000000,
|
|
100000000000000000100000000000000000200000000000,
|
|
000000000000100000000000200000100000000000000000,
|
|
100000000000100000000000100000100000000000100000,
|
|
000000000000000000100000000000000000100000000000,
|
|
000000000000000000000000000000000000000000000000,
|
|
#GOGOSTART
|
|
100000000000000000200000000000000000100000100000,
|
|
100000000000200000000000100000000000000000000000,
|
|
100000000000000000200000000000000000100000100000,
|
|
100000000000100000000000200000000000000000000000,
|
|
300000000000000000300000000000000000300000000000,
|
|
000000000000400000000000300000000000000000000000,
|
|
100000100000100000000000100000000000000000000000,
|
|
200000200000200000000000200000000000000000000000,
|
|
100000100000100000000000300000000000000000000000,
|
|
200000200000200000000000400000000000000000000000,
|
|
100000100000100000000000300000000000300000000000,
|
|
200000200000200000000000300000000000300000000000,
|
|
#GOGOEND
|
|
|
|
|
|
#END
|
|
|
|
|
|
COURSE:Easy
|
|
LEVEL:4
|
|
BALLOON:6,6
|
|
SCOREINIT:860
|
|
SCOREDIFF:260
|
|
|
|
|
|
#START
|
|
|
|
|
|
100000000000000000000000000000000000000000000000,
|
|
100000000000000000100000000000000000000000000000,
|
|
100000000000000000000000000000000000000000000000,
|
|
200000000000000000200000000000000000000000000000,
|
|
100000000000000000000000000000000000000000000000,
|
|
100000000000000000100000000000000000000000000000,
|
|
100000000000000000000000000000000000000000000000,
|
|
200000000000000000200000000000000000000000000000,
|
|
100000000000100000000000000000000000000000000000,
|
|
100000000000100000000000000000000000000000000000,
|
|
100000000000000000000000000000000000000000000000,
|
|
200000000000000000000000000000000000000000000000,
|
|
100000000000100000000000000000000000000000000000,
|
|
100000000000100000000000000000000000000000000000,
|
|
200000000000000000000000000000000000000000000000,
|
|
200000000000000000000000000000000000000000000000,
|
|
100000000000100000000000100000000000000000000000,
|
|
100000000000100000000000100000000000000000000000,
|
|
100000000000000000000000000000000000000000000000,
|
|
200000000000000000000000000000000000000000000000,
|
|
100000000000100000000000100000000000000000000000,
|
|
100000000000100000000000100000000000000000000000,
|
|
300000000000000000000000000000000000000000000000,
|
|
000000000000000000000000000000000000000000000000,
|
|
100000000000000000000000100000000000000000000000,
|
|
000000000000100000000000100000000000000000000000,
|
|
000000000000000000000000100000000000000000000000,
|
|
100000000000000000000000000000000000000000000000,
|
|
100000000000000000000000100000000000000000000000,
|
|
000000000000200000000000200000000000000000000000,
|
|
000000000000000000000000100000000000000000000000,
|
|
100000000000000000000000000000000000000000000000,
|
|
200000000000000000000000200000000000200000000000,
|
|
000000000000000000000000100000000000000000000000,
|
|
200000000000000000000000200000000000200000000000,
|
|
000000000000000000000000100000000000000000000000,
|
|
100000000000100000000000000000000000000000000000,
|
|
100000000000100000000000000000000000000000000000,
|
|
500000000000000000000000000000000000000000000080,
|
|
000000000000000000000000000000000000000000000000,
|
|
200000000000200000000000000000000000000000000000,
|
|
200000000000200000000000000000000000000000000000,
|
|
500000000000000000000000000000000000000000000080,
|
|
000000000000000000000000000000000000000000000000,
|
|
#GOGOSTART
|
|
100000000000000000000000000000000000100000100000,
|
|
100000000000000000000000000000000000000000000000,
|
|
100000000000000000000000000000000000100000100000,
|
|
100000000000000000000000000000000000000000000000,
|
|
300000000000000000300000000000000000300000000000,
|
|
000000000000300000000000300000000000000000500000,
|
|
000000000000000000000000000000000000000000000080,
|
|
000000000000000000000000000000000000000000000000,
|
|
#GOGOEND
|
|
100000000000000000000000000000000000100000000000,
|
|
100000000000000000000000000000000000100000000000,
|
|
100000000000000000000000000000000000100000000000,
|
|
100000000000000000000000000000000000000000000000,
|
|
200000000000000000000000000000000000200000000000,
|
|
200000000000000000000000200000000000000000000000,
|
|
200000000000000000000000000000000000000000000000,
|
|
200000000000000000000000000000000000000000000000,
|
|
000000000000000000000000000000000000000000000000,
|
|
#GOGOSTART
|
|
100000000000100000000000000000000000100000100000,
|
|
100000000000000000000000000000000000000000000000,
|
|
100000000000100000000000000000000000100000100000,
|
|
100000000000000000000000000000000000000000000000,
|
|
300000000000000000300000000000000000300000000000,
|
|
000000000000300000000000300000000000000000000000,
|
|
700000000000000000000000000000000000800000000000,
|
|
000000000000000000000000000000000000000000000000,
|
|
700000000000000000000000000000000000800000000000,
|
|
000000000000000000000000000000000000000000000000,
|
|
100000000000100000000000100000000000100000000000,
|
|
100000000000000000000000300000000000300000000000,
|
|
#GOGOEND
|
|
|
|
|
|
#END
|
|
|