Files
ESE/09 Namco Original/Morimori☆Tokumo Rhythm♪/Morimori☆Tokumo Rhythm♪.tja
T
2023-06-15 19:15:39 -05:00

370 lines
4.6 KiB
Plaintext

//TJADB Project
TITLE:Morimori☆Tokumo Rhythm♪
TITLEJA:もりもり☆特盛リズム♪
SUBTITLE:--Torine feat. Miki Narahashi
SUBTITLEJA:「太鼓の達人 特盛り!」テーマソング
BPM:132
WAVE:Morimori☆Tokumo Rhythm♪.ogg
OFFSET:-2.269
DEMOSTART:20.443
COURSE:Oni
LEVEL:8
BALLOON:10
SCOREINIT:500
SCOREDIFF:130
#START
3344,
3344,
1000001020211020,
11212020,
1000001020212010,
1020201020212210,
1022102210221011,
1022102211212000,
30034040,
600000000000000000000000000000000008000000000000,
#GOGOSTART
1001202110112000,
1001202110112000,
1011101110111000,
3334,
1011202010112020,
1022101020221000,
1011202010112020,
3000300022112022,
1011202010112020,
1022101020221010,
0011101010222020,
2033,
#GOGOEND
3001201110012011,
1001201110012011,
1022202010212210,
1020200020002022,
1011201110112022,
1011201110112011,
1000221122112022,
1200202211221111,
1001201210212010,
1001201210112000,
1001201210212012,
1120112012222022,
1001201210212010,
1001201210112000,
1001201210212012,
2211122112221000,
1001202030303040,
1022102212212000,
1001202030303040,
1022102212212011,
11210121,
1000201000102011,
10211121,
0010201020220211,
1011201110112011,
1011200030030060,
000000000000000000000000000000000008000000300000,
03304300,
#GOGOSTART
1001202110112000,
1001202110112000,
1011101110111000,
3334,
1011202010112020,
1022101020221000,
1011202010112020,
3000300212121022,
1011202010112020,
1022101020221010,
0011101010222020,
2033,
#GOGOEND
3000001020211020,
11212020,
1000001020212010,
1020201020212210,
3000211120102000,
3000211120102000,
3022200022121211,
7000000080012122,
1,
#END
COURSE:Hard
LEVEL:6
SCOREINIT:570
SCOREDIFF:163
#START
3344,
3344,
10012110,
11212020,
1000001020111000,
12212210,
1011100020222000,
1011100022202000,
30034040,
600000000000000000000000000000000008000000000000,
#GOGOSTART
1001101000202000,
1001101000202000,
1011101110111000,
3334,
11221120,
11221120,
11221122,
3300,
11221122,
11221122,
0011101010222020,
2033,
#GOGOEND
30201120,
10201220,
1011101020002000,
2020200020002011,
10201120,
10201220,
1022201110222000,
1022201022222000,
5,
000000000000000000000000000008000000000000000000,
5,
000000000000000000000000000008000000000000000000,
1000200000022020,
1202,
1000200000222020,
1110111011104000,
1001202030303000,
0,
1001202030303000,
0,
10210121,
10210121,
10211121,
01212021,
11211121,
1010200030030060,
000000000000000000000000000000000008000000000000,
0,
#GOGOSTART
1001101000202000,
1001101000202000,
1011101110111000,
3334,
11221120,
11221120,
11221122,
3300,
11221122,
11221122,
0011101010222020,
2033,
#GOGOEND
30012110,
11212020,
1000001020111000,
12212210,
30333040,
30333040,
6,
000000000000000000000000000000000000000000000008,
#END
COURSE:1
LEVEL:5
SCOREINIT:690
SCOREDIFF:208
#START
34,
34,
10001011,
500000000000000000000000000000000008000000000000,
10001011,
500000000000000000000000000000000008000000000000,
1122,
10102220,
30034040,
600000000000000000000000000008000000000000000000,
#GOGOSTART
10110000,
10110000,
11101110,
3330,
10101110,
1122,
10101110,
3300,
10201110,
1122,
01111222,
2033,
#GOGOEND
3011,
1011,
11101010,
22202020,
1011,
1011,
11101010,
22202020,
5,
000000000000000000000000000008000000000000000000,
5,
000000000000000000000000000008000000000000000000,
10200220,
1202,
10200220,
11101110,
30403330,
0,
30403330,
0,
10201120,
10201120,
10201120,
1210,
10101101,
1010000030030060,
000000000000000000000000000000000008000000000000,
0,
#GOGOSTART
10110000,
10110000,
11101110,
3330,
10101110,
1122,
10101110,
3300,
10201110,
1122,
01111222,
2033,
#GOGOEND
30001011,
500000000000000000000000000000000008000000000000,
10001011,
500000000000000000000000000000000008000000000000,
30333000,
30333000,
6,
000000000000000000000000000000000000000000000008,
#END
COURSE:0
LEVEL:3
BALLOON:5
SCOREINIT:530
SCOREDIFF:188
#START
3,
3,
1011,
500000000000000000000000000008000000000000000000,
1011,
500000000000000000000000000008000000000000000000,
1122,
1122,
3033,
600000000000000000000000000008000000000000000000,
#GOGOSTART
1100,
1100,
1111,
3330,
1110,
1110,
11,
3300,
1110,
1110,
1112,
2033,
#GOGOEND
3011,
11,
1111,
700000000000000000000000000000080000000000000000,
1011,
11,
1122,
1210,
5,
000000000000000000000000000008000000000000000000,
5,
000000000000000000000000000008000000000000000000,
1011,
12,
1011,
12,
30403330,
0,
30403330,
0,
1012,
1012,
1012,
1210,
1110,
1000000030030060,
000000000000000000000000000000000008000000000000,
0,
#GOGOSTART
1100,
1100,
1111,
3330,
1110,
1110,
11,
3300,
1110,
1110,
1112,
2033,
#GOGOEND
3011,
500000000000000000000000000008000000000000000000,
1011,
500000000000000000000000000008000000000000000000,
3330,
3330,
6,
000000000000000000000000000000000000000000000008,
#END