580 lines
6.9 KiB
Plaintext
580 lines
6.9 KiB
Plaintext
//TJADB Project
|
|
TITLE:Mr. Runner
|
|
TITLEJA:Mr.ランナー
|
|
SUBTITLE:--MOES feat. Singman
|
|
SUBTITLEJA:MOES feat. singman
|
|
BPM:160
|
|
WAVE:Mr. Runner.ogg
|
|
OFFSET:-1.603
|
|
DEMOSTART:50.450
|
|
|
|
COURSE:Oni
|
|
LEVEL:9
|
|
BALLOON:2,2,2,2,2,2,2,2,4
|
|
SCOREINIT:390
|
|
SCOREDIFF:85
|
|
|
|
|
|
#START
|
|
|
|
|
|
20202021,
|
|
20212121,
|
|
20202021,
|
|
21121121,
|
|
20202021,
|
|
20212121,
|
|
20202021,
|
|
21112121,
|
|
1112101020011000,
|
|
0010212010122000,
|
|
1111200000112210,
|
|
1021201122020120,
|
|
1121221020121020,
|
|
1020211010222000,
|
|
1111200000222120,
|
|
1001202220002210,
|
|
1120101121101120,
|
|
#BARLINEOFF
|
|
1011211011201011,
|
|
200100100000100100200000500000000000000008000000,
|
|
1121101021101120,
|
|
1121121011201010,
|
|
100100200000100200000100100000100000200000001000,
|
|
#BARLINEON
|
|
101202100201,
|
|
101202100201,
|
|
101202100201,
|
|
100000001000200020002000100000001000200000200200,
|
|
100012110200,
|
|
100212010200,
|
|
120020210120,
|
|
202011201011,
|
|
10210210,
|
|
2221112200111222,
|
|
1102220222222222,
|
|
|
|
#GOGOSTART
|
|
1011102202102000,
|
|
1001101202102000,
|
|
1001102200102000,
|
|
200020002000200200200200100010001000100100100200,
|
|
1011202210112020,
|
|
0010001010221020,
|
|
100010001000100010001000100010001000100100100000,
|
|
100010001000000200200200,
|
|
1001222210102002,
|
|
1001222200102000,
|
|
1111222211212000,
|
|
122122122100,
|
|
1011102000001011,
|
|
100000200000200100200000000000000000200020002000,
|
|
100020002000100020002000100020002000100100200200,
|
|
100000000100000000100000500000000000000008000000,
|
|
|
|
#GOGOEND
|
|
#MEASURE 3/4
|
|
120100,
|
|
#BARLINEOFF
|
|
102000100011,
|
|
211000102000,
|
|
#BARLINEON
|
|
120100,
|
|
#BARLINEOFF
|
|
120101,
|
|
201011102110,
|
|
#BARLINEON
|
|
102111201012,
|
|
#BARLINEOFF
|
|
112010201010,
|
|
201212002001,
|
|
#BARLINEON
|
|
102010201012,
|
|
#BARLINEOFF
|
|
112010201010,
|
|
201212012002,
|
|
#BARLINEON
|
|
#MEASURE 4/4
|
|
1121102000200020,
|
|
0020102010222020,
|
|
1121102000201020,
|
|
1121002012210020,
|
|
1121102000211120,
|
|
0020102010222020,
|
|
1121102000200020,
|
|
111111,
|
|
100010002000100010002000100100200200100100200200,
|
|
#MEASURE 3/4
|
|
#BPMCHANGE 199
|
|
111020112020,
|
|
#BARLINEOFF
|
|
111020112020,
|
|
111020112020,
|
|
111020221022,
|
|
112110221022,
|
|
102211211022,
|
|
102210221121,
|
|
102210708070,
|
|
802210708070,
|
|
802210708070,
|
|
802210708070,
|
|
827080,
|
|
|
|
#GOGOSTART
|
|
#BARLINEON
|
|
#MEASURE 4/4
|
|
1000102220102000,
|
|
1202102220102000,
|
|
1221102202102000,
|
|
1020102211221000,
|
|
1220102211202022,
|
|
0010112012202220,
|
|
1111112222111122,
|
|
1111112211222222,
|
|
1011002011202000,
|
|
1222102010202000,
|
|
1022112210202000,
|
|
122122122100,
|
|
12121212,
|
|
12121212,
|
|
200100100100200100100100200010001000100010001000,
|
|
200100100200200020201010,
|
|
|
|
#GOGOEND
|
|
#BPMCHANGE 198
|
|
12121212,
|
|
1020102010222222,
|
|
2222101122122111,
|
|
12112010,
|
|
12121222,
|
|
22111122,
|
|
#BARLINEOFF
|
|
122211,
|
|
3,
|
|
,
|
|
4,
|
|
|
|
|
|
#END
|
|
|
|
|
|
COURSE:Hard
|
|
LEVEL:7
|
|
BALLOON:8,17,16
|
|
SCOREINIT:490
|
|
SCOREDIFF:120
|
|
|
|
|
|
#START
|
|
|
|
|
|
10101001,
|
|
00221122,
|
|
10101002,
|
|
00112212,
|
|
10101001,
|
|
00221122,
|
|
10101002,
|
|
00112212,
|
|
1110100000000000,
|
|
000000100000100000200000100000500000000008000000,
|
|
1111100000202020,
|
|
1011101020020020,
|
|
1110100000101020,
|
|
000000100000100000000000100000500000000008000000,
|
|
1111100000222020,
|
|
1122,
|
|
|
|
12212012,
|
|
#BARLINEOFF
|
|
01221201,
|
|
200000000000100000200000200000500000000008000000,
|
|
12101012,
|
|
10101210,
|
|
10121020,
|
|
|
|
#BARLINEON
|
|
100202000200,
|
|
100202000200,
|
|
100202000200,
|
|
222200111100,
|
|
100202000200,
|
|
100202000200,
|
|
100202000200,
|
|
101011101011,
|
|
|
|
10210270,
|
|
08,
|
|
70000800,
|
|
|
|
#GOGOSTART
|
|
1011101000102000,
|
|
1001101100102000,
|
|
1011102000102000,
|
|
222200111100,
|
|
1000100010222020,
|
|
0010001010222000,
|
|
10070000,
|
|
00000800,
|
|
|
|
1011101010102000,
|
|
1011101100102000,
|
|
1011101110102000,
|
|
222200111100,
|
|
1000101000001011,
|
|
100100100100000000202020,
|
|
2000100011101110,
|
|
100000000100000000100000500000000000000008000000,
|
|
#GOGOEND
|
|
|
|
#MEASURE 9/4
|
|
120100120101210120,
|
|
120100120101211121,
|
|
102010201002002010201010202202002001,
|
|
121211121211211020,
|
|
|
|
#MEASURE 4/4
|
|
1111100000000000,
|
|
000000100000100000200000100000500000000008000000,
|
|
2222200000202020,
|
|
1111001010010000,
|
|
1111100000222220,
|
|
0020102010222000,
|
|
1111100000200020,
|
|
111111,
|
|
|
|
2020202022202220,
|
|
|
|
#BPMCHANGE 199
|
|
#MEASURE 3/4
|
|
300010111000,
|
|
#BARLINEOFF
|
|
100010111000,
|
|
100010111000,
|
|
100010111000,
|
|
121210,
|
|
222,
|
|
121210,
|
|
222,
|
|
|
|
321210,
|
|
121210,
|
|
121250,
|
|
000000000000000000000008000000000000,
|
|
|
|
#BARLINEON
|
|
#MEASURE 4/4
|
|
#GOGOSTART
|
|
10120120,
|
|
1100102000102000,
|
|
1011102000102000,
|
|
500000000000000000000000000000000008000000000000,
|
|
10121022,
|
|
01021020,
|
|
5,
|
|
000000000000000008000000000000000000000000000000,
|
|
|
|
1011001000202000,
|
|
1101101000202000,
|
|
1110111010202000,
|
|
500000000000000000000000000008000000000000000000,
|
|
12120202,
|
|
12120020,
|
|
5,
|
|
000000000000000000000000000000000008000000000000,
|
|
#GOGOEND
|
|
|
|
#BPMCHANGE 198
|
|
12121212,
|
|
0020102010111010,
|
|
1000111010002220,
|
|
200122,
|
|
122122,
|
|
9,
|
|
#BARLINEOFF
|
|
09,
|
|
8,
|
|
|
|
,
|
|
4,
|
|
,
|
|
,
|
|
#END
|
|
|
|
COURSE:Normal
|
|
LEVEL:6
|
|
BALLOON:3,3,3,3,3,3,3,15,3,3,3,3,3,3,10
|
|
|
|
#START
|
|
10101001,
|
|
0111,
|
|
20202002,
|
|
0222,
|
|
10101001,
|
|
0110,
|
|
20202002,
|
|
0222,
|
|
|
|
7800,
|
|
01101100,
|
|
700000000000800000000000000000500000000008000000,
|
|
10102200,
|
|
70800708,
|
|
01101100,
|
|
700000000000800000000000000000500000000008000000,
|
|
1122,
|
|
|
|
10020010,
|
|
#BARLINEOFF
|
|
02001002,
|
|
00100200,
|
|
1101,
|
|
2211,
|
|
0122,
|
|
|
|
#BARLINEON
|
|
1202,
|
|
1202,
|
|
100000000000500000000000000000000000000000000008,
|
|
0202,
|
|
1202,
|
|
1202,
|
|
1500,
|
|
000000000000000000000000000008000000000000000000,
|
|
|
|
30030060,
|
|
08,
|
|
,
|
|
|
|
#GOGOSTART
|
|
10110110,
|
|
10110110,
|
|
10110110,
|
|
7878,
|
|
10101011,
|
|
02022020,
|
|
7,
|
|
08,
|
|
|
|
10111010,
|
|
10111010,
|
|
10111110,
|
|
500000000000000000000000000000000008000000000000,
|
|
10110010,
|
|
10110020,
|
|
1250,
|
|
000000000000000000000000000000000008000000000000,
|
|
#GOGOEND
|
|
|
|
#MEASURE 9/4
|
|
100100020000200000,
|
|
100100020000200000,
|
|
200200000200200100,
|
|
100100100000100000100100100000100000,
|
|
|
|
#MEASURE 4/4
|
|
7800,
|
|
01101100,
|
|
7800,
|
|
7830,
|
|
70800708,
|
|
01101100,
|
|
70800200,
|
|
33,
|
|
|
|
44,
|
|
|
|
#BPMCHANGE 199
|
|
#MEASURE 3/4
|
|
322,
|
|
#BARLINEOFF
|
|
1,
|
|
122,
|
|
1,
|
|
422,
|
|
2,
|
|
222,
|
|
2,
|
|
|
|
322,
|
|
122,
|
|
125,
|
|
000000000000000000000008000000000000,
|
|
|
|
#BARLINEON
|
|
#MEASURE 4/4
|
|
#GOGOSTART
|
|
10010010,
|
|
10010010,
|
|
10010010,
|
|
22,
|
|
10101001,
|
|
01001000,
|
|
5,
|
|
000000000000000008000000000000000000000000000000,
|
|
|
|
10010010,
|
|
10010010,
|
|
10010010,
|
|
22,
|
|
1210,
|
|
1210,
|
|
5,
|
|
000000000000000000000000000000000008000000000000,
|
|
#GOGOEND
|
|
|
|
#BPMCHANGE 198
|
|
1212,
|
|
0202,
|
|
1101,
|
|
01,
|
|
101101,
|
|
9,
|
|
#BARLINEOFF
|
|
09,
|
|
8,
|
|
|
|
,
|
|
4,
|
|
,
|
|
,
|
|
#END
|
|
|
|
COURSE:Easy
|
|
LEVEL:4
|
|
BALLOON:2,2,2,2,2,2,2,2,10
|
|
|
|
#START
|
|
1110,
|
|
0110,
|
|
10101005,
|
|
000000000000000000000000000008000000000000000000,
|
|
1110,
|
|
0110,
|
|
10101005,
|
|
000000000000000000000000000008000000000000000000,
|
|
|
|
7800,
|
|
0110,
|
|
7800,
|
|
12,
|
|
7800,
|
|
0110,
|
|
7800,
|
|
12,
|
|
|
|
1001,
|
|
#BARLINEOFF
|
|
01,
|
|
0100,
|
|
1001,
|
|
01,
|
|
0100,
|
|
|
|
#BARLINEON
|
|
12,
|
|
12,
|
|
100000000000500000000000000000000000000000000008,
|
|
,
|
|
12,
|
|
12,
|
|
1500,
|
|
000000000000000000000008000000000000000000000000,
|
|
|
|
30030060,
|
|
08,
|
|
,
|
|
|
|
#GOGOSTART
|
|
10010010,
|
|
10010010,
|
|
10010010,
|
|
34,
|
|
1110,
|
|
01001000,
|
|
5,
|
|
000000000000000000000008000000000000000000000000,
|
|
|
|
10010010,
|
|
10010010,
|
|
1111,
|
|
34,
|
|
10010010,
|
|
10010010,
|
|
1150,
|
|
000000000000000000000000000000000008000000000000,
|
|
#GOGOEND
|
|
|
|
#MEASURE 9/4
|
|
110020,
|
|
110020,
|
|
220020,
|
|
111111,
|
|
|
|
#MEASURE 4/4
|
|
7800,
|
|
0110,
|
|
7800,
|
|
33,
|
|
7800,
|
|
0110,
|
|
7800,
|
|
33,
|
|
|
|
33,
|
|
|
|
#BPMCHANGE 199
|
|
#MEASURE 3/4
|
|
3,
|
|
#BARLINEOFF
|
|
1,
|
|
1,
|
|
1,
|
|
4,
|
|
2,
|
|
2,
|
|
2,
|
|
|
|
3,
|
|
1,
|
|
1,
|
|
1,
|
|
|
|
#BARLINEON
|
|
#MEASURE 4/4
|
|
#GOGOSTART
|
|
10010000,
|
|
10010000,
|
|
10010000,
|
|
44,
|
|
11,
|
|
01001000,
|
|
5,
|
|
000000000000000000000008000000000000000000000000,
|
|
|
|
10010000,
|
|
11,
|
|
1110,
|
|
22,
|
|
10010000,
|
|
10010000,
|
|
25,
|
|
000000000000000000000000000000000008000000000000,
|
|
#GOGOEND
|
|
|
|
#BPMCHANGE 198
|
|
0202,
|
|
0202,
|
|
0101,
|
|
01,
|
|
11,
|
|
9,
|
|
#BARLINEOFF
|
|
09,
|
|
8,
|
|
|
|
,
|
|
4,
|
|
,
|
|
,
|
|
#END |