Files
ESE/09 Namco Original/Ryuumyaku no Ou/Ryuumyaku no Ou.tja
T
2023-06-15 19:00:23 -05:00

570 lines
7.3 KiB
Plaintext

//TJADB Project
TITLE:Ryuumyaku no Ou
TITLEJA:龍脈の王
SUBTITLE:--Junichi Nakatsuru
BPM:150
WAVE:Ryuumyaku no Ou.ogg
OFFSET:-1.812
DEMOSTART:8.183
COURSE:Oni
LEVEL:9
BALLOON:18,18,18,18,38
SCOREINIT:370
SCOREDIFF:78
#START
43,
34,
600000000000000000000000000000000008000000000000,
70000008,
1001201010221020,
1122202212101022,
1001201010221020,
1212201121201022,
1001201010221020,
1122202212101022,
1001201010221020,
1212202212101022,
1001201011221020,
1122202212101022,
100100500000000000000000000008000000100000200200,
1212202212101022,
1020122010221020,
1120122110201022,
1020122110221022,
500000000000000000000000000000000008000000000000,
1111201120102220,
1111201120201020,
1111201120201022,
1111201120201020,
1111201120102220,
1111201120201020,
1111201120201022,
70000008,
1201201011201122,
1201201012112211,
1201201011211212,
1201201011201122,
1201201011201122,
1201201012112211,
1201201012112212,
1201201012112211,
2211221122112122,
1021021012021122,
#BARLINEOFF
#SCROLL 1.5
#GOGOSTART
10010020
#SCROLL 1
11112212,
1010010010212210,
#SCROLL 2.5
10010020
#SCROLL 1
11112212,
1020020020121120,
0
#SCROLL 0.7
1001002
0000
#SCROLL 3
3003,
00400000
#SCROLL 1
12112111,
#SCROLL 2
01001002
#SCROLL 0.5
00001001,
00200000
#SCROLL 4
30030040,
#BARLINEON
#SCROLL 1
#GOGOEND
00200200,
10200200,
1000001000001021,
10201200,
10201200,
1022112211002021,
1010222010221020,
1011202210221122,
1022201220221021,
1010222010221020,
1011202210221122,
1022201220221021,
1011222010221022,
1011202210221122,
1022201220221121,
1011222010221120,
1112111211221122,
1211121112121122,
111222,
121212221222,
3222,
70000008,
1011201011201020,
1011201011201020,
1011202011201020,
1011202011201122,
1011201011221220,
1121201011212020,
70000008,
111222,
#GOGOSTART
1011202111201120,
1011202121201022,
1011202111201120,
1011202121221122,
1011202111201122,
1011202121201122,
7,
00000008,
200000101011200000202011,
200000101011201120112011,
200000101011200000202011,
200000101011201120112011,
200000101022200010102020,
102020101011201120112011,
200000111011200000111011,
200000111011201120112011,
222222303030,
101110222020111020111010,
200011200020221000112020,
#SCROLL 2
033400000000,
#GOGOEND
#END
COURSE:Hard
LEVEL:8
BALLOON:14,14,14,14,30
SCOREINIT:440
SCOREDIFF:95
#START
43,
34,
600000000000000000000000000000000008000000000000,
70000008,
1001101000111010,
2222200011102000,
1001101000111010,
0022201022200000,
1001101000111010,
1111100011102000,
1001101000111010,
2222200011102000,
1001101000111010,
2222200011102000,
100100500000000000000000000008000000100000200000,
1111100011102000,
1000222010201020,
1000111010201020,
1000222010201020,
500000000000000000000000000000000008000000000000,
1011101000202220,
1011101000201020,
1011101000201020,
500000000000000000000000000000000000000008000000,
1011101000202220,
1011101000201020,
1011101000201020,
70000008,
1001101011102000,
100000000100100000100000200000002000000020000000,
1001101011102000,
1212,
1001101011102000,
1001101011102000,
1001101011102000,
100000000100100000100000200000002000000020000000,
1001101011102000,
500000000000000000000000000000000008000000000000,//38
#BARLINEOFF
#SCROLL 1.5
#GOGOSTART
10010020
#SCROLL 1
11101110,
0010010020020020,
#SCROLL 2.5
10010020
#SCROLL 1
11101110,
0020010020010020,
#SCROLL 0.7
01001002
#SCROLL 3
00003003,
00400000
#SCROLL 1
11101110,
#SCROLL 2
01001002
#SCROLL 0.5
00001001,
00200000
#SCROLL 4
30030040,//46
#BARLINEON
#SCROLL 1
#GOGOEND
00200200,
20200200,
2000002000002011,
10201200,
10201200,
2022202010002011,
11221212,
11221212,
2010102010102011,
11221212,
11221211,
2010102010102011,
1010222010201020,
11221211,
2022202010102011,
11221212,
1010111010101110,
1110111011111000,
111111,
111110111110,
4222,
70000008,
1011101022202020,
1011101022202020,
1011102010200000,
1011102010200000,
1011101022202020,
1011101022202020,
70000008,
111222,//76
#GOGOSTART
1011102011101020,
1011102022201020,
1011102011101020,
1011102022201020,
1011102011101020,
1011102022201020,
7,
00000008,
100111100111,
100111101010,
100111100111,
100222202020,
100111101010,
100222202020,
100111100111,
100222202020,
600000000000000008000000300000003000000030000000,
111100222200,
600000000000000000000000000000000000000008000000,
#SCROLL 2
033400000000,//96
#BARLINEOFF
#GOGOEND
#END
COURSE:Normal
LEVEL:7
BALLOON:10,10,10,21,10,10,21,10
SCOREINIT:590
SCOREDIFF:133
#START
43,
34,
600000000000000000000000000000000008000000000000,
7008,
10210120,
10201120,
500000000000000000000000000000000000000008000000,
02202200,
10210120,
10201120,
500000000000000000000000000000000000000008000000,
02200000,
10210120,
10201120,
10210120,
1212,
1220,
1222,
7008,
500000000000000000000000000000000008000000000000,
10210200,
10210202,
10210200,
500000000000000000000000000000000000000008000000,
10210200,
10210202,
10210200,
7008,
10101120,
100111,
10201120,
1212,
10201120,
1012,
10201120,
100111,
10201120,
500000000000000000000000000000000008000000000000,//38
#BARLINEOFF
#SCROLL 1.2
#GOGOSTART
10010020
#SCROLL 1
00000000,
0010010010010010,
#SCROLL 1.5
10010020
#SCROLL 1
00000000,
0020020020020020,
#SCROLL 0.7
01001002
#SCROLL 2
00003003,
0400
#SCROLL 1
0000,
#SCROLL 1.8
01001002
#SCROLL 0.5
00001001,
00200000
#SCROLL 2.5
30030040,//46
#BARLINEON
#SCROLL 1
#GOGOEND
00200200,
20200200,
20020020,
10201200,
20201200,
20020020,
10201210,
20201210,
20120120,
11201210,
21201210,
20120120,
11201210,
21201210,
20120120,
10201210,
7,
08,
111111,
111111,
4,
7008,
10210120,
10201120,
10220200,
10220200,
10210120,
10201120,
7008,
500000000000000000000000000000000008000000000000,//76
#GOGOSTART
11102220,
11102220,
11102220,
11102220,
11112222,
11112222,
7,
08,
1212,
100200101010,
1212,
100200202020,
100200101010,
100200202020,
1212,
100200404040,
600000000000000008000000300000003000000030000000,
7008,
600000000000000000000000000000000000000008000000,
#SCROLL 2
033400000000,//96
#BARLINEOFF
#GOGOEND
#END
COURSE:Easy
LEVEL:5
BALLOON:8,8,8,17,4,4,4,4,8,8,17,8
SCOREINIT:490
SCOREDIFF:83
#START
43,
34,
600000000000000000000000000000000008000000000000,
7008,
10010010,
11,
500000000000000000000000000000000000000000000008,
,
10010010,
12,
500000000000000000000000000000000000000000000008,
,
10010010,
11,
10010010,
1111,
12,
1022,
7008,
500000000000000000000000000008000000000000000000,
10010200,
10010202,
10010200,
500000000000000000000000000008000000000000000000,
10010200,
10010202,
10010200,
7008,
1111,
12,
1210,
1111,
1210,
1011,
1215,
000000000000000000000000000008000000000000000000,
1212,
500000000000000000000000000008000000000000000000,//38
#BARLINEOFF
#SCROLL 1.1
#GOGOSTART
10010020
#SCROLL 1
00000000,
,
#SCROLL 1.3
10010020
#SCROLL 1
00000000,
,
#SCROLL 0.7
01001002
#SCROLL 1.5
00003003,
0400
#SCROLL 1
0000,
#SCROLL 1.7
01001002
#SCROLL 0.7
00001001,
00200000
#SCROLL 2
30030040,//46
#BARLINEON
#SCROLL 1
#GOGOEND
00200200,
20200200,
20020020,
00200200,
20200200,
20020020,
00201200,
20201200,
20120120,
00201200,
20201200,
20120120,
10201200,
20201200,
20120120,
10201200,
7,
08,
70087008,
70087008,
3,
7008,
1202,
1202,
00200200,
00200200,
1202,
1202,
7008,
500000000000000000000000000008000000000000000000,//76
#GOGOSTART
1112,
1112,
1112,
500000000000000000000000000008000000000000000000,
1122,
1122,
7,
08,
1212,
1230,
1212,
1240,
1230,
1240,
1212,
1240,
600000000000000008000000000000000000000000000000,
7008,
600000000000000000000000000000000000000008000000,
#SCROLL 2
033400000000,//96
#BARLINEOFF
#GOGOEND
#END