Files
ESE/09 Namco Original/Tengu-bayashi/Tengu-bayashi.tja
T
2023-06-15 19:15:39 -05:00

790 lines
8.6 KiB
Plaintext

//TJADB Project
TITLE:Tengu-bayashi
TITLEJA:天狗囃子
SUBTITLE:--Hisui & Yuuji Masubuchi
BPM:103
WAVE:Tengu-bayashi.ogg
OFFSET:-2.549
DEMOSTART:114.866
COURSE:Oni
LEVEL:9
SCOREINIT:430
SCOREDIFF:100
#START
#MEASURE 3/4
000000000000000001,
12,
#MEASURE 9/8
3,
#MEASURE 4/4
#BPMCHANGE 206
#SCROLL 0.9
1111111111111000,
2222222222222000,
2111102111102111,
12012011,
#MEASURE 2/4
00111010,
#MEASURE 4/4
1,
#MEASURE 6/4
#SCROLL 0.6
110101210102,
101000100010200010201122,
110101210102,
002020002002201000102222,
110101210102,
222220201020100022222010,
110202110202,
110202102222,
120020020021,
120020121021,
100000002222200000001111,
120120300000,
120020020021,
120120121021,
100000002222200000001111,
102000100022200022201010,
100010102000100010122000,
200000400000100022221111,
110201110201,
500000000000000000000000000000000008000000000000000000000000000000000000,
#MEASURE 3/4
101100,
#MEASURE 7/8
1,
#MEASURE 3/4
101102,
#MEASURE 7/8
1,
#MEASURE 3/4
101102,
#MEASURE 7/8
1,
#MEASURE 3/4
101102,
#MEASURE 7/8
1122212,
#MEASURE 3/4
101120,
#MEASURE 7/8
1201211,
#MEASURE 3/4
201200,
#MEASURE 7/8
201010100200100100200,
#MEASURE 3/4
102102,
#MEASURE 7/8
10102010102110,
#MEASURE 3/4
101100,
#MEASURE 9/8
200020201020121212,
#MEASURE 9/4
100000000000000000222000000000100000,
100000000000000000222000000000100000,
100000100010222020100010100010200020,
100000100010222000100010200020100000,
100000100010222220100010100011100010,
#MEASURE 21/8
100000100000200000100000100000200000100010002000100010002000100010002000100000000000100000000000300000000000000000000000000000,
#MEASURE 9/4
100010221022100010001010200020102010,
100010222200100010101020100010102000,
100010220010100022100010100020112000,
100000222210201020102010112011201120,
#MEASURE 6/4
#BPMCHANGE 204
300300302120,
300000300000300020112010,
300300302120,
300000300000300012102010,
100100102220,
110000000110000000
#BPMCHANGE 202
110000100200200000,
101010000000000000101010000000000000
#BPMCHANGE 200
101010000000200200200000200000200000,
#MEASURE 3/4
600000000000
#BPMCHANGE 198
000000000000
#BPMCHANGE 196
000008000000,
#MEASURE 19/8
#BPMCHANGE 92
#SCROLL 2.2
#BARLINEOFF
300000
#BPMCHANGE 113
#SCROLL 1
00000000000000000000000000000000,
#MEASURE 4/4
#BARLINEON
2000200202202000,//65
#BPMCHANGE 226
#SCROLL 0.7
#GOGOSTART
1000201010222010,
000000000000100010001000100000200200200000200000,
10112112,
02122112,
10112112,
0020102220201010,
10112112,
02122112,
10210230,
0010002220201010,
#BPMCHANGE 224
10212112,
#MEASURE 3/4
020201,
#MEASURE 4/4
10212222,
#MEASURE 3/4
020201,
#MEASURE 4/4
20121122,
#MEASURE 3/4
020201,
#MEASURE 4/4
1000201022202010,
#MEASURE 3/4
010301,
#MEASURE 4/4
#BPMCHANGE 226
10112112,
12122122,
1000101020101022,
22112211,
10112112,
02202022,
20202022,
0020202220101020,
#BPMCHANGE 224
1000201022201020,
#MEASURE 3/4
020201,
#MEASURE 4/4
1000201022202020,
#MEASURE 3/4
020201,
#MEASURE 4/4
2000102011102020,
#MEASURE 3/4
020201,
#MEASURE 4/4
100020102220
#BPMCHANGE 222
2020,
04
#BPMCHANGE 220
04
#BPMCHANGE 214
03
#BPMCHANGE 103
#SCROLL 1
#GOGOEND
00,
#MEASURE 7/4
#GOGOSTART
3
#GOGOEND
000000,
#MEASURE 4/4
#BPMCHANGE 206
#SCROLL 0.9
#GOGOSTART
2111102111102111,
12012011,
#MEASURE 2/4
1111,
#GOGOEND
#SCROLL 1.5
3,
#END
COURSE:Hard
LEVEL:7
BALLOON:28,12,12,12
SCOREINIT:430
SCOREDIFF:130
#START
#MEASURE 3/4
,
1,
#MEASURE 9/8
3,
#MEASURE 4/4
#BPMCHANGE 206
#SCROLL 0.9
1000100011111000,
2000200022222000,
1000001000001111,
11011011,
#MEASURE 2/4
1111,
#MEASURE 4/4
1,
#MEASURE 6/4
#SCROLL 0.6
110201110200,
110201102020,
110201110200,
122022220220,
110201110200,
111011102220,
110200110200,
110200300000,
101120101000,
101120101000,
202220202000,
202220100000,
101120101000,
101120101000,
202220202000,
202220100000,
101200101200,
1430,
7,
008,
#MEASURE 3/4
3,
#MEASURE 7/8
2222222,
#MEASURE 3/4
1,
#MEASURE 7/8
2222222,
#MEASURE 3/4
1,
#MEASURE 7/8
2222222,
#MEASURE 3/4
1,
#MEASURE 7/8
2222222,
#MEASURE 3/4
101100,
#MEASURE 7/8
2022000,
#MEASURE 3/4
101100,
#MEASURE 7/8
2022000,
#MEASURE 3/4
101100,
#MEASURE 7/8
2022000,
#MEASURE 3/4
101100,
#MEASURE 9/8
202202111,
#MEASURE 9/4
1,
1,
100101200202101100,
100101200202101100,
100101200202101100,
#MEASURE 21/8
111100101010303030000,
#MEASURE 9/4
101022100100102200,
101022100100102200,
100020200020200022200020200010100000,
101100212121121210,
#MEASURE 6/4
#BPMCHANGE 204
3330,
3330,
3330,
3330,
700008,
700008,
700008,
#MEASURE 3/4
500000000000000000000000000008000000,
#MEASURE 9/4
#BPMCHANGE 62
#SCROLL 4
#BARLINEOFF
3
#BPMCHANGE 112.5
00000000,
#MEASURE 4/4
#SCROLL 1
#BARLINEON
3,//65
#BPMCHANGE 225
#SCROLL 0.7
#GOGOSTART
10111101,
01103000,
10111002,
02022000,
10111002,
02022000,
10111002,
02022000,
10210210,
03,
10111002,
#MEASURE 3/4
020200,
#MEASURE 4/4
10111002,
#MEASURE 3/4
020200,
#MEASURE 4/4
20111001,
#MEASURE 3/4
010100,
#MEASURE 4/4
10222002,
#MEASURE 3/4
020200,
#MEASURE 4/4
10111002,
02022000,
10111002,
02022000,
10111002,
02022000,
20202022,
02222000,
10111002,
#MEASURE 3/4
020200,
#MEASURE 4/4
10111002,
#MEASURE 3/4
020200,
#MEASURE 4/4
20111001,
#MEASURE 3/4
010100,
#MEASURE 4/4
10222002,
0202
#BPMCHANGE 222
02//99-1
#BPMCHANGE 103
#GOGOEND
00,//99-2
#MEASURE 7/4
#GOGOSTART
3//100-1
#GOGOEND
000000,//100-2
#MEASURE 4/4
#BPMCHANGE 206
#SCROLL 0.9
#GOGOSTART
1111101111101111,
11011011,
#MEASURE 2/4
1111,//103
#GOGOEND
1,
#END
COURSE:Normal
LEVEL:7
BALLOON:19,18,8,8,8,8
#START
#MEASURE 3/4
,
1,
#MEASURE 9/8
7,
#MEASURE 4/4
#BPMCHANGE 206
#SCROLL 0.9
8,
,
10010010,
01011000,
#MEASURE 2/4
,
#MEASURE 4/4
3,
#MEASURE 6/4
#SCROLL 0.6
110101100000,
110101100000,
110101100000,
022022200000,
110101100000,
111011100000,
110100110100,
110100300000,
112110,
112100,
222220,
222100,
112110,
112100,
222220,
222100,
1212,
1210,
7,
008,
#MEASURE 3/4
3,
#MEASURE 7/8
2,
#MEASURE 3/4
3,
#MEASURE 7/8
2,
#MEASURE 3/4
3,
#MEASURE 7/8
2,
#MEASURE 3/4
3,
#MEASURE 7/8
2,
#MEASURE 3/4
101100,
#MEASURE 7/8
2,
#MEASURE 3/4
101100,
#MEASURE 7/8
2,
#MEASURE 3/4
101100,
#MEASURE 7/8
2,
#MEASURE 3/4
101100,
#MEASURE 9/8
200000111,
#MEASURE 9/4
1,
,
100101100000200000,
100101100000200000,
100101100000200000,
#MEASURE 21/8
100101100000303030000,
#MEASURE 9/4
101020100100200000,
101020100100200000,
102202200200200000,
102202200200200000,
#MEASURE 6/4
#BPMCHANGE 204
3330,
3330,
3330,
3330,
700008,
700008,
700008,
#MEASURE 3/4
33,
#MEASURE 9/4
#BPMCHANGE 62
#SCROLL 1.99
#BARLINEOFF
3
#BPMCHANGE 112.5
00000000,
#MEASURE 4/4
#SCROLL 1
#BARLINEON
,//65
#BPMCHANGE 225
#SCROLL 0.7
#GOGOSTART
5,
000000000008000000000000000000000000000000000000,
10101002,
02002000,
10101002,
02002000,
10101002,
02002000,
30030030,
,
10001002,
#MEASURE 3/4
020200,
#MEASURE 4/4
10001002,
#MEASURE 3/4
020200,
#MEASURE 4/4
10001002,
#MEASURE 3/4
020200,
#MEASURE 4/4
10101003,
#MEASURE 3/4
,
#MEASURE 4/4
10001002,
02002000,
10001002,
02002000,
10001002,
02002000,
7,
8,
10101002,
#MEASURE 3/4
020200,
#MEASURE 4/4
10101002,
#MEASURE 3/4
020200,
#MEASURE 4/4
20202001,
#MEASURE 3/4
010100,
#MEASURE 4/4
10101002,
0202
#BPMCHANGE 222
02//99-1
#BPMCHANGE 103
#GOGOEND
00,//99-2
#MEASURE 7/4
#GOGOSTART
3//100-1
#GOGOEND
000000,//100-2
#MEASURE 4/4
#BPMCHANGE 206
#SCROLL 0.9
#GOGOSTART
10010010,
01011000,
#MEASURE 2/4
,//103
#GOGOEND
3,
#END
COURSE:Easy
LEVEL:4
BALLOON:14,14,6,6,6,6,10
#START
#MEASURE 3/4
,
,
#MEASURE 9/8
7,
#MEASURE 4/4
#BPMCHANGE 206
#SCROLL 0.9
8,
,
,
,
#MEASURE 2/4
,
#MEASURE 4/4
3,
#MEASURE 6/4
#SCROLL 0.6
111100,
111100,
111100,
222200,
111100,
111100,
11,
13,
110100,
110100,
220200,
220100,
110100,
110100,
220200,
220100,
5,
000000000000000000000000000000000000000000000000000008000000000000000000,
7,
008,
#MEASURE 3/4
1,
#MEASURE 7/8
2,
#MEASURE 3/4
1,
#MEASURE 7/8
2,
#MEASURE 3/4
1,
#MEASURE 7/8
2,
#MEASURE 3/4
1,
#MEASURE 7/8
2,
#MEASURE 3/4
11,
#MEASURE 7/8
1,
#MEASURE 3/4
11,
#MEASURE 7/8
1,
#MEASURE 3/4
11,
#MEASURE 7/8
1,
#MEASURE 3/4
11,
#MEASURE 9/8
1,
#MEASURE 9/4
3,
,
120202,
020201,
120202,
#MEASURE 21/8
000200000200100000000,
#MEASURE 9/4
120202,
020201,
120202,
020210,
#MEASURE 6/4
#BPMCHANGE 204
3330,
3330,
3330,
3330,
700008,
700008,
700008,
#MEASURE 3/4
33,
#MEASURE 9/4
#BPMCHANGE 62
#SCROLL 1.99
#BARLINEOFF
3
#BPMCHANGE 112.5
00000000,
#MEASURE 4/4
#SCROLL 1
#BARLINEON
,//65
#BPMCHANGE 225
#SCROLL 0.7
#GOGOSTART
5,
0800,
10001001,
,
10001001,
,
10001001,
,
20020020,
,
10001001,
#MEASURE 3/4
,
#MEASURE 4/4
10001001,
#MEASURE 3/4
,
#MEASURE 4/4
10001001,
#MEASURE 3/4
,
#MEASURE 4/4
20002002,
#MEASURE 3/4
,
#MEASURE 4/4
10001001,
,
10001001,
,
10001001,
,
7,
8,
10001001,
#MEASURE 3/4
,
#MEASURE 4/4
20002002,
#MEASURE 3/4
,
#MEASURE 4/4
10001001,
#MEASURE 3/4
,
#MEASURE 4/4
20000002,
0202
#BPMCHANGE 222
02//99-1
#BPMCHANGE 103
#GOGOEND
00,//99-2
#MEASURE 7/4
#GOGOSTART
3//100-1
#GOGOEND
000000,//100-2
#MEASURE 4/4
#BPMCHANGE 206
#SCROLL 0.9
#GOGOSTART
7,
,
#MEASURE 2/4
8,//103
#GOGOEND
3,
#END