Files
ESE/09 Namco Original/Tsukuyomi/Tsukuyomi.tja
T
2023-06-15 19:15:39 -05:00

624 lines
6.1 KiB
Plaintext

//TJADB Project
TITLE:Tsukuyomi
TITLEJA:月読命
SUBTITLE:--Tatsh a.k.a. Zeami
SUBTITLEJA:Tatsh a.k.a 世阿弥
BPM:97
WAVE:Tsukuyomi.ogg
OFFSET:-3.306
DEMOSTART:15.268
COURSE:Oni
LEVEL:10
SCOREINIT:350
SCOREDIFF:80
#START
#MEASURE 2/4
2220,
#BPMCHANGE 64.82
#MEASURE 1/4
,
#BPMCHANGE 80.4
#MEASURE 4/4
22200000,
#MEASURE 3/8
#BPMCHANGE 40.2
#SCROLL 0.68
040000,
#MEASURE 4/4
#BPMCHANGE 210
#SCROLL 1
10200120,
10200120,
10200120,
1021201022122210,
2011102012102011,
1020121022112010,
2011102012102011,
1020121022112222,
1022101021201022,
1010212022112010,
4011201010202211,
1012201020121210,
4011201010202211,
1012201020121210,
500000000000000000000000000000000000000008000000,
0011201011202011,
2011211012121012,
2210121212112110,
3022201000102220,
1022102010222210,
3022201000102022,
1022102010222210,
3011201000200010,
0020001020122210,
3002202010102200,
1010220010112110,
1021021010221010,
2011201121102011,
1021021010221010,
2021021012102211,
1021021012102210,
2021021012121212,
1222122212212212,
2112112112211210,
32212212,
2010201020221020,
32212212,
2010201020221020,
32122122,
2010202010221020,
32122122,
2010202010221020,
3022102020201020,
2010201020221020,
3022102022102020,
3222,
34,
6,
000000000000000000000008000000000000000000000000,
#GOGOSTART
3022201022102020,
1022201010221020,
1021001010222010,
0010221020102222,
1022201022102020,
1022201010221020,
1021001010222010,
4000400030002222,
100000100000202010100000200200100000202010100000,
200200100000202010100000200200100000200200200200,
100000100000202010100000200200100000202010100000,
200200100000202010100000200200100000200200200200,
102020102120,
1021201000102222,
102020102120,
1021201020102222,
2010201020112010,
2010201020112010,
3021201030212010,
3021212030212040,
#MEASURE 2/4
,
#GOGOEND
#MEASURE 4/4
22022022,
02202020,
22022022,
02202220,
22022022,
02202220,
22022022,
1020202010222111,
22122022,
1020200020201111,
22122022,
1020111020201111,
22122022,
1020200020201111,
22122010,
0000001120202211,
#GOGOSTART
1011202011112010,
2211221112101010,
1111222211112211,
2020201022102010,
1102201010010010,
0010201000222000,
1111201022102010,
1102201120102000,
1021201010212010,
1000021200112010,
1111222211221122,
1112221112121020,
2102102121111020,
2102102121112211,
1111222111122211,
1111212121222220,
#GOGOEND
30000001,
10000001,
40000001,
4,
3,
,
,
#MEASURE 5/8
#BPMCHANGE 208.2
,
#BARLINEOFF
#MEASURE 7/8
#BPMCHANGE 125
2
#BPMCHANGE 126.63
#SCROLL 0.97
2
#BPMCHANGE 109.16
#SCROLL 1.1
2
#BPMCHANGE 88.91
#SCROLL 1.29
2
#BPMCHANGE 81.63
#SCROLL 1.31
2
#BPMCHANGE 103.94
#SCROLL 0.89
2
#BPMCHANGE 83
#SCROLL 1
2,
#END
COURSE:Hard
LEVEL:8
BALLOON:20
SCOREINIT:470
SCOREDIFF:110
#START
#MEASURE 2/4
2220,
#BPMCHANGE 64.82
#MEASURE 1/4
,
#BPMCHANGE 80.4
#MEASURE 4/4
22200000,
#MEASURE 3/8
#BPMCHANGE 40.2
#SCROLL 0.68
040000,
#MEASURE 4/4
#BPMCHANGE 210
#SCROLL 1
10200120,
10200120,
10200120,
1020200010111000,
11122211,
12221020,
11122211,
1020202010222000,
11122211,
12221020,
3,
40000222,
30002120,
40002102,
500000000000000000000000000000000000000008000000,
00201210,
11201220,
1010200010222000,
30210122,
10221220,
30210122,
10221220,
30210201,
0020001000222020,
30221122,
11212121,
1001001010001010,
2000200020002011,
1001001000102000,
2002002000102000,
1001001000102000,
2002002000020000,
7,
0008,
3,
,
3,
0002,
3002,
22,
3002,
22,
3,
22,
3,
3222,
33,
6,
000000000000000000000008000000000000000000000000,
#GOGOSTART
1110202010102020,
1212,
10221021,
01221120,
1110202010102020,
1212,
10210120,
3000400030002222,
21010202,
0010002000102222,
21010202,
0010002000102222,
222111,
10210120,
222111,
10202121,
2000200020111010,
2000200020111010,
32203220,
32203224,
#MEASURE 2/4
,
#GOGOEND
#MEASURE 4/4
4,
0002,
3,
,
4,
,
3,
12221222,
1022,
1000101020001110,
1022,
1000111020001110,
10002021,
0000200020001110,
1021,
0000001020201111,
#GOGOSTART
11221122,
1110202010102020,
1110202010102020,
10202211,
1000202010010010,
0000201000112000,
1110202010102020,
1444,
10211021,
1000020200001000,
1110202011102020,
1110201011102010,
2010201020111010,
2010201020111010,
1110202011102011,
1110202010222220,
#GOGOEND
30000001,
10000001,
40000001,
4,
3,
#END
COURSE:Normal
LEVEL:7
BALLOON:8,13,13
SCOREINIT:560
SCOREDIFF:150
#START
#MEASURE 2/4
2220,
#BPMCHANGE 64.82
#MEASURE 1/4
,
#BPMCHANGE 80.4
#MEASURE 4/4
22200000,
#MEASURE 3/8
#BPMCHANGE 40.2
#SCROLL 0.68
040000,
#MEASURE 4/4
#BPMCHANGE 210
#SCROLL 1
3,
,
7,
8,
10010010,
01002020,
10010010,
01002220,
10010010,
01002020,
3,
4,
3,
4,
500000000000000000000000000000000000000008000000,
0111,
1212,
1222,
30020120,
20221000,
30020120,
20221000,
30210101,
01010102,
3,
2,
1001001000002000,
1120,
1001001000002000,
1001001000002000,
1001001000002000,
1001001000002000,
7,
08,
3,
,
3,
,
3002,
22,
3002,
22,
3,
22,
3,
3222,
33,
6,
000000000000000000000008000000000000000000000000,
#GOGOSTART
10221022,
1212,
10221021,
,
10221022,
1212,
10210000,
4430,
01010101,
01020200,
01010101,
01020200,
222200,
2,
222200,
2220,
1212,
1212,
32203220,
32203222,
#MEASURE 2/4
,
#GOGOEND
#MEASURE 4/4
4,
0002,
3,
,
4,
,
3,
,
12,
20102011,
12,
10102011,
10002011,
00002011,
1021,
,
#GOGOSTART
10221021,
1222,
10221021,
1222,
10221021,
00210120,
10221122,
1444,
10011001,
20022000,
7,
08,
10101021,
10101021,
10221021,
10221122,
#GOGOEND
30000001,
10000001,
40000001,
4,
3,
#END
COURSE:Easy
LEVEL:5
BALLOON:6,10,10
SCOREINIT:450
SCOREDIFF:130
#START
#MEASURE 2/4
2220,
#BPMCHANGE 64.82
#MEASURE 1/4
,
#BPMCHANGE 80.4
#MEASURE 4/4
22200000,
#MEASURE 3/8
#BPMCHANGE 40.2
#SCROLL 0.68
040000,
#MEASURE 4/4
#BPMCHANGE 210
#SCROLL 1
3,
,
7,
8,
10010010,
01002000,
10010010,
01002000,
10010010,
01002000,
3,
4,
3,
4,
500000000000000000000000000000000000000008000000,
0111,
0222,
0222,
3,
2220,
3,
2220,
30010101,
01010000,
3,
,
11,
1120,
11,
22,
11,
1120,
7,
08,
3,
,
3,
,
3,
,
3,
,
3,
,
3,
3,
33,
6,
000000000000000000000008000000000000000000000000,
#GOGOSTART
1012,
1110,
10001022,
,
1012,
1110,
1,
3330,
01010101,
01010100,
01010101,
01010100,
22,
2,
22,
2220,
11,
11,
33,
33,
#MEASURE 2/4
,
#MEASURE 4/4
#GOGOEND
4,
,
3,
,
4,
,
3,
,
11,
22,
1002,
,
11,
22,
1002,
,
#GOGOSTART
10010010,
0222,
10010010,
0222,
10010010,
0222,
12,
1122,
10011001,
10022000,
7,
08,
1112,
1112,
1122,
1122,
#GOGOEND
3,
4,
3,
4,
3,
#END