Files

427 lines
5.5 KiB
Plaintext

TITLE:micro.wav
SUBTITLE:--dandeless - [Phigros]
BPM:172
WAVE:microwav.ogg
PREIMAGE:microwav.png
OFFSET:-1.47
DEMOSTART:29.377
GENRE:ゲームミュージック
MAKER:sulf
COURSE:Oni
LEVEL:10
SCOREINIT:
SCOREDIFF:
#START
4500000000000000,
0008,
4040,
201010201010200100200100200000200000202020200020,
1021201221102021,
1020202121102010,
1021221121102021,
1020202121212221,
1021202121102021,
1020202121102020,
1021101111102021,
1020202121122122,
1021202121112021,
1020102112201021,
2122201222212022,
2020221121222022,
1020202121102021,
1020102112201021,
2122201222212022,
2010201120212020,
#GOGOSTART
1022101212012022,
1121201212021120,
1021201212021020,
2121211120112012,
1022101212012022,
1121201202112012,
1022112211012122,
1011211120112122,
1121201121112111,
2010201121212121,
1121201121112111,
2011201020212122,
1021212221112111,
1010102121212121,
1121201121112010,
100000100200200000100000200000201010200100200000,
#GOGOEND
#SCROLL 0.8
3023003023003000,
2020,
4040,
4010201021202122,
3003203023003000,
2020,
4040,
3000400021202120,
#SCROLL 0.9
3021202012201101,
3000222230002020,
32212200,
3000000040211120,
1001401010400000,
3111000040201111,
4010000040101120,
400010102020
#SCROLL 1
2222,
#GOGOSTART
2112212121112121,
1221211121211112,
2112112111212121,
1121221221211212,
1111211212112212,
1221221222122122,
1211112121212122,
100200200100200200200100200200200200100200202020,
2121112121112212,
2122212122211122,
1222122221212122,
2111121122122112,
200100100200100100102020200100200100200100200200,
2122122121212122,
2112212222112112,
2212112112212221,
2122212122212121,
2122212112112121,
2122212121222122,
2122122212212211,
2122212122212121,
2122212122212121,
2122212122212122,
2122122112122121,
#GOGOEND
2121212121212122,
1120212122201212,
2121212120212022,
2122122122212111,
2121212121212222,
2120212122202121,
2111212120212020,
102020101010100000200100100200200100200100100100,
1121112101211011,
1011001010111010,
1,
,
,
,
#END
COURSE:Hard
LEVEL:8
SCOREINIT:
SCOREDIFF:
#START
5,
0080,
4040,
2121212120202020,
1021201010102002,
1000201210102010,
1021201010102001,
11212222,
1020201210102002,
11212122,
1000100101101001,
1020102120102022,
1000201110102010,
12121212,
2022201201222022,
2020221020202020,
1010201210102010,
12121212,
2012201201202022,
1020102120202020,
#GOGOSTART
1021202101012020,
1020101202022020,
1020201202012020,
1021202110212022,
1021202101012020,
1020101202022020,
1020201202012020,
1021212120112022,
1021201120112010,
11212222,
1021211021102110,
2010201120202020,
1021201120112010,
11212222,
1020121012101110,
2010101210101010,
#GOGOEND
1001001001001000,
,
2020,
1020201021202220,
1001001001001000,
,
2020,
10202222,
1021012002002000,
1000222010001020,
12212200,
1000000020111020,
2012002000200000,
1111000010202220,
1020000020101120,
10212222,
#GOGOSTART
1202011101021012,
1210121020110120,
1210120201222022,
1120120201201212,
1202012101021012,
1210101120110120,
1212102211221120,
1222122250000080,
2011102021102110,
1022101022101120,
1210121020201020,
2210211021121120,
2012012220201022,
1012012020201010,
2110211021102110,
2210222122212221,
2020202020202121,
1010101012101212,
2020202020202012,
1012012012102120,
2020202020202121,
2020202020202121,
2020202020212021,
1012012012121212,
#GOGOEND
1010202010102120,
1010202010101210,
2020101020202022,
1002002210020120,
1010202010102120,
2020202021202121,
2010201020212021,
2012012022112021,
1020111020102010,
1110101010111010,
1,
,
,
,
#END
COURSE:Normal
LEVEL:7
SCOREINIT:
SCOREDIFF:
#START
5,
0080,
2020,
100010001000200200200000200000200000200000200000,
12211120,
10212121,
11221120,
11212222,
12211120,
11212122,
1000100100101000,
12112122,
10211120,
02020202,
2022200202202020,
1010110020202020,
11211120,
02020202,
2002200201101010,
21212222,
#GOGOSTART
1020200101022020,
1020100202022020,
1020200202011020,
12211212,
1020200101022020,
1020100202022020,
1020200202011020,
1022201020102020,
12212121,
11212222,
1022201020102010,
21212222,
12212121,
11212222,
12212121,
21112222,
#GOGOEND
3,
,
2020,
1020201020102220,
3,
,
2020,
10202222,
3002002002002000,
1000222010001020,
22012000,
1000000020111020,
2002002000200000,
1011000010202220,
12002111,
20202222,
#GOGOSTART
1102010101022011,
1010201020110220,
1110220201022022,
1020220201101110,
1102011101022010,
1110202020110220,
1011102210222020,
50000008,
21121121,
1022201022201020,
1210201020201020,
2220111020110220,
2011020220201020,
1011011020201010,
2011201020112010,
2010221020102210,
2020202020202022,
1010101010101012,
22222221,
1011022011102020,
2020202020202011,
2020202020202022,
1020102010201021,
1022011011102220,
#GOGOEND
11111122,
11111112,
22222222,
10121021,
11111122,
22222222,
12121212,
2011022022102011,
12112121,
11101010,
1,
,
,
,
#END
COURSE:Easy
LEVEL:5
SCOREINIT:
SCOREDIFF:
#START
2,
,
2020,
11212222,
12201120,
10212120,
11201120,
11212222,
12201120,
11202122,
1111,
12112120,
10210120,
02020202,
2020200200202020,
11102222,
11220120,
02020202,
2000200200101000,
21212222,
#GOGOSTART
1020200101010020,
1010100202020020,
1010200202010020,
11221020,
1020200101010020,
1010100202020020,
1020200202010020,
12212120,
11221120,
11212222,
11212120,
21212222,
11221120,
11212222,
11212120,
11112222,
#GOGOEND
3,
,
2020,
11221022,
3,
,
2020,
10202222,
3,
30223012,
30002200,
30004110,
3,
31003220,
32002110,
40002222,
#GOGOSTART
50080112,
11225080,
11508012,
12221110,
15008011,
11221020,
5,
0008,
21021021,
22022022,
11221122,
21212122,
11002212,
11002212,
21212121,
22112211,
22222222,
11111212,
22222221,
1010010010102020,
22222221,
22222222,
12121212,
1020010010102020,
#GOGOEND
11101120,
11101110,
22202220,
10121020,
11101120,
22202220,
1212,
2020020010102020,
10111020,
1110,
1,
,
,
,
#END