1134 lines
14 KiB
Plaintext
1134 lines
14 KiB
Plaintext
// PeepoDrumKit 2025/09/03
|
|
TITLE:Non-self
|
|
SUBTITLE:--Studio EIM
|
|
BPM:175
|
|
WAVE:Non-self.ogg
|
|
OFFSET:-0.026
|
|
DEMOSTART:126.693
|
|
GENRE:ゲームミュージック
|
|
MAKER:sulf
|
|
|
|
COURSE:Oni
|
|
LEVEL:10
|
|
BALLOON:9
|
|
|
|
#START
|
|
#SCROLL 0.714286
|
|
#HBSCROLL
|
|
58,
|
|
2
|
|
#SCROLL 0.457143
|
|
101
|
|
#SCROLL 0.714286
|
|
2000,
|
|
#BPMCHANGE 182
|
|
#SCROLL 0.686813
|
|
2
|
|
#SCROLL 0.43956
|
|
11
|
|
#SCROLL 0.714286
|
|
2,
|
|
#BPMCHANGE 177
|
|
#SCROLL 0.706215
|
|
200
|
|
#SCROLL 0.451977
|
|
1
|
|
#SCROLL 0.706215
|
|
2
|
|
#SCROLL 0.451977
|
|
100,
|
|
20
|
|
#SCROLL 0.451977
|
|
11,
|
|
#BPMCHANGE 179
|
|
#SCROLL 0.698324
|
|
20000
|
|
#SCROLL 0.446927
|
|
101,
|
|
#BPMCHANGE 165
|
|
#SCROLL 0.757576
|
|
202
|
|
#SCROLL 0.484848
|
|
1,
|
|
#BPMCHANGE 187
|
|
#SCROLL 0.668449
|
|
2000
|
|
#BPMCHANGE 165
|
|
#SCROLL 0.757576
|
|
200
|
|
#SCROLL 0.484848
|
|
1,
|
|
#BPMCHANGE 178
|
|
#SCROLL 0.702247
|
|
2
|
|
#SCROLL 0.449438
|
|
1000
|
|
#SCROLL 0.702247
|
|
100,
|
|
#SCROLL 0.449438
|
|
4,
|
|
#MEASURE 1/24
|
|
#BPMCHANGE 176
|
|
#SCROLL 0.9
|
|
2,
|
|
#BPMCHANGE 176
|
|
2,
|
|
#BPMCHANGE 176
|
|
2,
|
|
#MEASURE 5/8
|
|
#BPMCHANGE 176
|
|
100102000
|
|
#SCROLL 1
|
|
200220,
|
|
#MEASURE 1/24
|
|
#BPMCHANGE 176
|
|
#SCROLL 1.05682
|
|
1,
|
|
#BPMCHANGE 176
|
|
1,
|
|
#BPMCHANGE 176
|
|
1,
|
|
#BPMCHANGE 176
|
|
1,
|
|
#BPMCHANGE 176
|
|
1,
|
|
#BPMCHANGE 176
|
|
1,
|
|
#MEASURE 4/4
|
|
#BPMCHANGE 186
|
|
#SCROLL 1
|
|
200000200000100000200200200000200000100000202020,
|
|
100000200100201010100100200000100000100000200200,
|
|
200000000100200010001000200000000100202020100100,
|
|
#MEASURE 3/4
|
|
200000101010200200100010200020001000,
|
|
#MEASURE 1/32
|
|
#BPMCHANGE 186
|
|
1,
|
|
#BPMCHANGE 186
|
|
1,
|
|
#BPMCHANGE 186
|
|
1,
|
|
#BPMCHANGE 186
|
|
1,
|
|
#MEASURE 1/16
|
|
#BPMCHANGE 186
|
|
1,
|
|
#BPMCHANGE 186
|
|
1,
|
|
#MEASURE 4/4
|
|
#BPMCHANGE 186
|
|
200000000100200010002000200010102020200100202020,
|
|
#MEASURE 3/4
|
|
200000100100200000200100200000101000,
|
|
#MEASURE 1/24
|
|
#BPMCHANGE 186
|
|
2,
|
|
#BPMCHANGE 186
|
|
2,
|
|
#BPMCHANGE 186
|
|
2,
|
|
#BPMCHANGE 186
|
|
2,
|
|
#BPMCHANGE 186
|
|
2,
|
|
#BPMCHANGE 186
|
|
2,
|
|
#MEASURE 4/4
|
|
#BPMCHANGE 186
|
|
200000200100200100200200201010002000202020101020,
|
|
2021212210102211,
|
|
#SCROLL 0.9
|
|
42,
|
|
#SCROLL 0.8
|
|
32,
|
|
#SCROLL 0.7
|
|
30201222,
|
|
1002000050000080,
|
|
#MEASURE 1/192
|
|
#BPMCHANGE 194
|
|
#SCROLL 0.5
|
|
4,
|
|
#MEASURE 4/4
|
|
#SCROLL 1
|
|
00000000000000000000000000000000000000000000000
|
|
#SCROLL 0.5
|
|
100000000000000000000000000000000000000000000000100000000000000000000000000000000000000000000000100000000000000000000000000000000000000000000000
|
|
#SCROLL 0.5
|
|
4,
|
|
#SCROLL 1
|
|
00000000000000000000000000000000000000000000000
|
|
#SCROLL 0.5
|
|
100000000000000000000000000000000000000000000000100000000000000000000000000000000000000000000000300000000000000000000000000000000000000000000000
|
|
#SCROLL 0.5
|
|
4,
|
|
#SCROLL 1
|
|
00000000000000000000000000000000000000000000000
|
|
#SCROLL 0.5
|
|
100000000000000000000000000000000000000000000000200000000000000000000000000000000000000000000000100000000000000000000000000000000000000000000000
|
|
#SCROLL 0.5
|
|
4,
|
|
#SCROLL 1
|
|
00000000000000000000000000000000000
|
|
#SCROLL 0.5
|
|
000000000000100000000000000000000000000000000000000000000000100000000000000000000000000000000000000000000000100000000000000000000000000000000000000000000000
|
|
#SCROLL 0.5
|
|
4,
|
|
#SCROLL 1
|
|
00000000000000000000000000000000000000000000000
|
|
#SCROLL 0.5
|
|
100000000000000000000000000000000000000000000000100000000000000000000000000000000000000000000000100000000000000000000000000000000000000000000000
|
|
#SCROLL 0.5
|
|
4,
|
|
#SCROLL 1
|
|
00000000000000000000000000000000000000000000000
|
|
#SCROLL 0.5
|
|
100000000000000000000000000000000000000000000000200000000000000000000000000000000000000000000000100000000000000000000000000000000000000000000000
|
|
#SCROLL 0.5
|
|
4,
|
|
#MEASURE 191/192
|
|
#SCROLL 1
|
|
00000000000000000000000000000000000000000000000
|
|
#SCROLL 0.5
|
|
100000000000000000000000000000000000000000000000200000000000000000000000000000000000000000000000100000000000000000000000000000000000000000000000,
|
|
#MEASURE 4/24
|
|
3,
|
|
#MEASURE 1/24
|
|
#BPMCHANGE 194
|
|
#SCROLL 0.8
|
|
2,
|
|
#BPMCHANGE 194
|
|
2,
|
|
#BPMCHANGE 194
|
|
2,
|
|
#MEASURE 17/24
|
|
#BPMCHANGE 194
|
|
20000200100
|
|
#SCROLL 0.8
|
|
20
|
|
#SCROLL 0.833333
|
|
20
|
|
#SCROLL 0.866667
|
|
20,
|
|
#MEASURE 4/4
|
|
#SCROLL 0.9
|
|
200200101010200000100000,
|
|
200000002000100000001000200000002000100100200100,
|
|
#MEASURE 3/4
|
|
202010012020,
|
|
#MEASURE 1/24
|
|
#BPMCHANGE 194
|
|
1,
|
|
#BPMCHANGE 194
|
|
1,
|
|
#MEASURE 4/24
|
|
#BPMCHANGE 194
|
|
1,
|
|
#MEASURE 4/4
|
|
100200000200100020002000200000000000100020002000,
|
|
102000200000100000100000200000000000100100100000,
|
|
#MEASURE 8/24
|
|
2021,
|
|
#MEASURE 1/24
|
|
#BPMCHANGE 194
|
|
2,
|
|
#BPMCHANGE 194
|
|
2,
|
|
#BPMCHANGE 194
|
|
2,
|
|
#BPMCHANGE 194
|
|
2,
|
|
#MEASURE 2/4
|
|
#BPMCHANGE 194
|
|
12021122,
|
|
#MEASURE 4/4
|
|
100000000000200000200000100000202000100100100100,
|
|
#MEASURE 3/4
|
|
200000002000100000100100200100202000,
|
|
#MEASURE 1/24
|
|
#BPMCHANGE 194
|
|
#SCROLL 1
|
|
1,
|
|
#BPMCHANGE 194
|
|
1,
|
|
#BPMCHANGE 194
|
|
1,
|
|
#BPMCHANGE 194
|
|
1,
|
|
#BPMCHANGE 194
|
|
1,
|
|
#BPMCHANGE 194
|
|
1,
|
|
#MEASURE 4/4
|
|
#BPMCHANGE 194
|
|
4020100022201020,
|
|
1020121020221010,
|
|
200000100000200000200200200000200000100010101000,
|
|
200200002000100100200000200200100100200020001000,
|
|
200000101000200020002000100000002000200000200100,
|
|
100000100000200000100000200000100100200010000100,
|
|
200200100000200000200000200000100000200020202000,
|
|
100000200100200000100000100000200200101010200200,
|
|
#SCROLL 1.2
|
|
400000
|
|
#SCROLL 1.1
|
|
200000200000100000200010002020200200200200,
|
|
200010002000101010000200200000100000200200100100,
|
|
200000100000200000100100200020002000100100200000,
|
|
100020200200200000200100100010002000100100200200,
|
|
100000200000100200100000200000202000100010101000,
|
|
200000200200100000201010200020002020100000100100,
|
|
#SCROLL 1
|
|
200200120100100200000200,
|
|
#MEASURE 1/4
|
|
1210,
|
|
#MEASURE 1/32
|
|
#BPMCHANGE 194
|
|
#SCROLL 1.5
|
|
1,
|
|
#BPMCHANGE 194
|
|
1,
|
|
#BPMCHANGE 194
|
|
1,
|
|
#BPMCHANGE 194
|
|
1,
|
|
#BPMCHANGE 194
|
|
1,
|
|
#BPMCHANGE 194
|
|
1,
|
|
#BPMCHANGE 194
|
|
1,
|
|
#BPMCHANGE 194
|
|
1,
|
|
#MEASURE 2/4
|
|
#BPMCHANGE 194
|
|
40
|
|
#SCROLL 1.3
|
|
1122111222,
|
|
#GOGOSTART
|
|
200111100200,
|
|
100000100100200100201020,
|
|
#MEASURE 1/4
|
|
12,
|
|
#MEASURE 1/32
|
|
#BPMCHANGE 194
|
|
1,
|
|
#BPMCHANGE 194
|
|
1,
|
|
#MEASURE 1/16
|
|
#BPMCHANGE 194
|
|
1,
|
|
#MEASURE 1/32
|
|
#BPMCHANGE 194
|
|
1,
|
|
#BPMCHANGE 194
|
|
1,
|
|
#MEASURE 1/16
|
|
#BPMCHANGE 194
|
|
1,
|
|
#MEASURE 2/4
|
|
#BPMCHANGE 194
|
|
200000100100202020100000,
|
|
200000100100200100202020,
|
|
21212111,
|
|
200000101010200200101010,
|
|
200000100100202020101010,
|
|
20121010,
|
|
#MEASURE 1/4
|
|
2211,
|
|
#MEASURE 1/24
|
|
#BPMCHANGE 194
|
|
2,
|
|
#BPMCHANGE 194
|
|
2,
|
|
#MEASURE 1/12
|
|
#BPMCHANGE 194
|
|
1,
|
|
1,
|
|
#MEASURE 1/4
|
|
202020100200,
|
|
#MEASURE 1/16
|
|
#BPMCHANGE 194
|
|
1,
|
|
#BPMCHANGE 194
|
|
1,
|
|
#BPMCHANGE 194
|
|
1,
|
|
#BPMCHANGE 194
|
|
1,
|
|
#MEASURE 2/4
|
|
200100202020200000101010,
|
|
20212211,
|
|
202110120210,
|
|
211200202010,
|
|
#MEASURE 1/24
|
|
#BPMCHANGE 194
|
|
2,
|
|
#BPMCHANGE 194
|
|
2,
|
|
#BPMCHANGE 194
|
|
2,
|
|
#BPMCHANGE 194
|
|
2,
|
|
#BPMCHANGE 194
|
|
2,
|
|
#BPMCHANGE 194
|
|
2,
|
|
#BPMCHANGE 194
|
|
1,
|
|
#BPMCHANGE 194
|
|
1,
|
|
#BPMCHANGE 194
|
|
1,
|
|
#BPMCHANGE 194
|
|
1,
|
|
#BPMCHANGE 194
|
|
1,
|
|
#BPMCHANGE 194
|
|
1,
|
|
#MEASURE 2/4
|
|
#BPMCHANGE 194
|
|
200010002000200100100000,
|
|
202020100200101010101010,
|
|
#MEASURE 1/4
|
|
22,
|
|
#MEASURE 1/16
|
|
#BPMCHANGE 194
|
|
1,
|
|
#BPMCHANGE 194
|
|
1,
|
|
#BPMCHANGE 194
|
|
1,
|
|
#BPMCHANGE 194
|
|
1,
|
|
#MEASURE 1/8
|
|
#BPMCHANGE 194
|
|
2,
|
|
#MEASURE 1/32
|
|
#BPMCHANGE 194
|
|
2,
|
|
#BPMCHANGE 194
|
|
2,
|
|
#MEASURE 1/16
|
|
#BPMCHANGE 194
|
|
2,
|
|
#MEASURE 1/8
|
|
11,
|
|
#MEASURE 1/32
|
|
#BPMCHANGE 194
|
|
1,
|
|
#BPMCHANGE 194
|
|
1,
|
|
#BPMCHANGE 194
|
|
1,
|
|
#BPMCHANGE 194
|
|
1,
|
|
#MEASURE 2/4
|
|
#BPMCHANGE 194
|
|
200010000100200000100000,
|
|
200000100000101010100100,
|
|
200100200000102020100200,
|
|
#MEASURE 3/8
|
|
200000101010200100,
|
|
#MEASURE 1/32
|
|
#BPMCHANGE 194
|
|
1,
|
|
#BPMCHANGE 194
|
|
1,
|
|
#BPMCHANGE 194
|
|
1,
|
|
#BPMCHANGE 194
|
|
1,
|
|
#MEASURE 2/4
|
|
#BPMCHANGE 194
|
|
200020000000000010000000200000200000100100200000,
|
|
200000200100101010200000,
|
|
#MEASURE 1/4
|
|
2022,
|
|
#MEASURE 1/24
|
|
#BPMCHANGE 194
|
|
1,
|
|
#BPMCHANGE 194
|
|
1,
|
|
#BPMCHANGE 194
|
|
1,
|
|
#BPMCHANGE 194
|
|
1,
|
|
#BPMCHANGE 194
|
|
1,
|
|
#BPMCHANGE 194
|
|
1,
|
|
#MEASURE 1/4
|
|
#BPMCHANGE 194
|
|
2021,
|
|
#MEASURE 1/24
|
|
#BPMCHANGE 194
|
|
2,
|
|
#BPMCHANGE 194
|
|
2,
|
|
#BPMCHANGE 194
|
|
2,
|
|
#BPMCHANGE 194
|
|
2,
|
|
#BPMCHANGE 194
|
|
2,
|
|
#BPMCHANGE 194
|
|
2,
|
|
#MEASURE 2/4
|
|
#BPMCHANGE 194
|
|
100100200000102020100100,
|
|
#MEASURE 1/4
|
|
202110,
|
|
#MEASURE 1/16
|
|
#BPMCHANGE 194
|
|
2,
|
|
#BPMCHANGE 194
|
|
2,
|
|
#BPMCHANGE 194
|
|
2,
|
|
#BPMCHANGE 194
|
|
2,
|
|
#MEASURE 2/4
|
|
#BPMCHANGE 194
|
|
100000200200101010202020,
|
|
#MEASURE 1/24
|
|
#BPMCHANGE 194
|
|
1,
|
|
#BPMCHANGE 194
|
|
1,
|
|
#BPMCHANGE 194
|
|
1,
|
|
#BPMCHANGE 194
|
|
1,
|
|
#BPMCHANGE 194
|
|
1,
|
|
#BPMCHANGE 194
|
|
1,
|
|
#MEASURE 1/32
|
|
#BPMCHANGE 194
|
|
2,
|
|
#BPMCHANGE 194
|
|
2,
|
|
#BPMCHANGE 194
|
|
2,
|
|
#BPMCHANGE 194
|
|
2,
|
|
#BPMCHANGE 194
|
|
2,
|
|
#BPMCHANGE 194
|
|
2,
|
|
#BPMCHANGE 194
|
|
2,
|
|
#BPMCHANGE 194
|
|
2,
|
|
#MEASURE 4/4
|
|
#GOGOEND
|
|
#BPMCHANGE 194
|
|
#SCROLL 1
|
|
4232,
|
|
300200300000200100202020,
|
|
300020300000200000200100,
|
|
300000300000210200100100,
|
|
3200302010201000,
|
|
300200300100200000111000,
|
|
3321,
|
|
30402011,
|
|
40402021,
|
|
500000000000000000800000200000000000100100101010,
|
|
#SCROLL 1.1
|
|
400
|
|
#SCROLL 1
|
|
34230,
|
|
2000301040102222,
|
|
32322132,
|
|
21304211,
|
|
300200200300400200101010,
|
|
2220301020102010,
|
|
44414231,
|
|
202000200000300000200000
|
|
#SCROLL 1
|
|
1000
|
|
#SCROLL 1.03333
|
|
1000
|
|
#SCROLL 1.06667
|
|
2000
|
|
#SCROLL 1.1
|
|
100
|
|
#SCROLL 1.125
|
|
100
|
|
#SCROLL 1.15
|
|
200
|
|
#SCROLL 1.175
|
|
200,
|
|
#SCROLL 1.2
|
|
2
|
|
#SCROLL 1
|
|
2212121,
|
|
32104212,
|
|
400200200000100000100000400000101010200020002000,
|
|
4020112111221222,
|
|
4020104021104020,
|
|
4010122040002010,
|
|
4000202010202200,
|
|
4020102011221222,
|
|
#SCROLL 0.5
|
|
33
|
|
#SCROLL 0.8
|
|
20,
|
|
#SCROLL 0.5
|
|
33
|
|
#SCROLL 0.8
|
|
12,
|
|
#SCROLL 0.5
|
|
33
|
|
#SCROLL 0.8
|
|
20,
|
|
#SCROLL 0.5
|
|
300000000000300000000000
|
|
#SCROLL 0.8
|
|
1001002002001000
|
|
#SCROLL 0.9
|
|
20202020,
|
|
100000200000200100100000200000000000100010001000,
|
|
22121020,
|
|
400000100000200000200000200000102000
|
|
#SCROLL 1
|
|
100100200200,
|
|
100200201010200200200200
|
|
#SCROLL 2
|
|
400000000000
|
|
#SCROLL 3
|
|
500000800000,
|
|
#MEASURE 2/4
|
|
#GOGOSTART
|
|
#SCROLL 1.5
|
|
12222210,
|
|
20111012,
|
|
#MEASURE 1/4
|
|
1022,
|
|
#MEASURE 1/32
|
|
#BPMCHANGE 194
|
|
1,
|
|
#BPMCHANGE 194
|
|
1,
|
|
#BPMCHANGE 194
|
|
1,
|
|
#BPMCHANGE 194
|
|
1,
|
|
#BPMCHANGE 194
|
|
1,
|
|
#BPMCHANGE 194
|
|
1,
|
|
#MEASURE 1/16
|
|
#BPMCHANGE 194
|
|
1,
|
|
#MEASURE 2/4
|
|
2000101020221000,
|
|
211200200100,
|
|
200100200200100000102000,
|
|
100100211200,
|
|
#MEASURE 1/4
|
|
2012,
|
|
#MEASURE 1/12
|
|
#BPMCHANGE 194
|
|
3,
|
|
#BPMCHANGE 194
|
|
3,
|
|
#BPMCHANGE 194
|
|
3,
|
|
#MEASURE 2/4
|
|
#BPMCHANGE 194
|
|
300211202101,
|
|
200020000000100000100000200000200200100010001000,
|
|
#MEASURE 1/4
|
|
2120,
|
|
#MEASURE 1/16
|
|
#BPMCHANGE 194
|
|
1,
|
|
#BPMCHANGE 194
|
|
1,
|
|
#BPMCHANGE 194
|
|
1,
|
|
#BPMCHANGE 194
|
|
1,
|
|
#MEASURE 1/4
|
|
#BPMCHANGE 194
|
|
21,
|
|
#MEASURE 1/12
|
|
#BPMCHANGE 194
|
|
4,
|
|
#BPMCHANGE 194
|
|
4,
|
|
#BPMCHANGE 194
|
|
4,
|
|
#MEASURE 2/4
|
|
#BPMCHANGE 194
|
|
101010100100200000100000,
|
|
200000100010200010100100,
|
|
200200101100,
|
|
#MEASURE 1/24
|
|
#BPMCHANGE 194
|
|
2,
|
|
#BPMCHANGE 194
|
|
2,
|
|
#BPMCHANGE 194
|
|
2,
|
|
#BPMCHANGE 194
|
|
2,
|
|
#BPMCHANGE 194
|
|
1,
|
|
#BPMCHANGE 194
|
|
1,
|
|
#BPMCHANGE 194
|
|
2,
|
|
#BPMCHANGE 194
|
|
2,
|
|
#BPMCHANGE 194
|
|
1,
|
|
#BPMCHANGE 194
|
|
1,
|
|
#BPMCHANGE 194
|
|
1,
|
|
#BPMCHANGE 194
|
|
1,
|
|
#MEASURE 2/4
|
|
#BPMCHANGE 194
|
|
200100100000101020200100,
|
|
200000201010200000100100,
|
|
#MEASURE 1/4
|
|
222100,
|
|
#MEASURE 1/16
|
|
#BPMCHANGE 194
|
|
2,
|
|
#BPMCHANGE 194
|
|
2,
|
|
#BPMCHANGE 194
|
|
2,
|
|
#BPMCHANGE 194
|
|
2,
|
|
#MEASURE 1/8
|
|
#BPMCHANGE 194
|
|
1,
|
|
#MEASURE 1/32
|
|
#BPMCHANGE 194
|
|
2,
|
|
#BPMCHANGE 194
|
|
2,
|
|
#BPMCHANGE 194
|
|
2,
|
|
#BPMCHANGE 194
|
|
2,
|
|
#MEASURE 1/4
|
|
#BPMCHANGE 194
|
|
10201022,
|
|
#MEASURE 2/4
|
|
101010100100200000200100,
|
|
20112112,
|
|
100000200100100000200010,
|
|
#MEASURE 1/4
|
|
200222,
|
|
#MEASURE 1/24
|
|
#BPMCHANGE 194
|
|
1,
|
|
#BPMCHANGE 194
|
|
2,
|
|
#BPMCHANGE 194
|
|
1,
|
|
#BPMCHANGE 194
|
|
2,
|
|
#BPMCHANGE 194
|
|
1,
|
|
#BPMCHANGE 194
|
|
2,
|
|
#MEASURE 2/4
|
|
#BPMCHANGE 194
|
|
122122,
|
|
#MEASURE 1/4
|
|
111,
|
|
#MEASURE 1/24
|
|
#BPMCHANGE 194
|
|
2,
|
|
#BPMCHANGE 194
|
|
2,
|
|
#BPMCHANGE 194
|
|
1,
|
|
#BPMCHANGE 194
|
|
1,
|
|
#BPMCHANGE 194
|
|
2,
|
|
#BPMCHANGE 194
|
|
2,
|
|
#MEASURE 1/4
|
|
#BPMCHANGE 194
|
|
1121,
|
|
#MEASURE 1/24
|
|
#BPMCHANGE 194
|
|
2,
|
|
#BPMCHANGE 194
|
|
2,
|
|
#BPMCHANGE 194
|
|
2,
|
|
#BPMCHANGE 194
|
|
2,
|
|
#BPMCHANGE 194
|
|
2,
|
|
#BPMCHANGE 194
|
|
2,
|
|
#MEASURE 2/4
|
|
#BPMCHANGE 194
|
|
2011202010202010,
|
|
202000101000200000100100,
|
|
#MEASURE 3/8
|
|
201122,
|
|
#MEASURE 1/24
|
|
#BPMCHANGE 194
|
|
1,
|
|
#BPMCHANGE 194
|
|
2,
|
|
#BPMCHANGE 194
|
|
1,
|
|
#MEASURE 1/4
|
|
#BPMCHANGE 194
|
|
200200101000,
|
|
#MEASURE 1/24
|
|
#BPMCHANGE 194
|
|
2,
|
|
#BPMCHANGE 194
|
|
2,
|
|
#BPMCHANGE 194
|
|
2,
|
|
#BPMCHANGE 194
|
|
1,
|
|
#BPMCHANGE 194
|
|
1,
|
|
#BPMCHANGE 194
|
|
1,
|
|
#MEASURE 1/4
|
|
#BPMCHANGE 194
|
|
2222,
|
|
#MEASURE 1/32
|
|
#BPMCHANGE 194
|
|
1,
|
|
#BPMCHANGE 194
|
|
1,
|
|
#BPMCHANGE 194
|
|
1,
|
|
#BPMCHANGE 194
|
|
1,
|
|
#BPMCHANGE 194
|
|
2,
|
|
#BPMCHANGE 194
|
|
2,
|
|
#BPMCHANGE 194
|
|
2,
|
|
#BPMCHANGE 194
|
|
2,
|
|
#MEASURE 2/4
|
|
#BPMCHANGE 194
|
|
100100201110,
|
|
200221201110,
|
|
#MEASURE 1/4
|
|
2120,
|
|
#MEASURE 1/32
|
|
#BPMCHANGE 194
|
|
1,
|
|
#BPMCHANGE 194
|
|
1,
|
|
#MEASURE 1/16
|
|
#BPMCHANGE 194
|
|
1,
|
|
#MEASURE 1/32
|
|
#BPMCHANGE 194
|
|
1,
|
|
#BPMCHANGE 194
|
|
1,
|
|
#BPMCHANGE 194
|
|
1,
|
|
#BPMCHANGE 194
|
|
1,
|
|
#MEASURE 2/4
|
|
#BPMCHANGE 194
|
|
200000000000200200000000100010001000100000200000,
|
|
102020102102,
|
|
10212021,
|
|
100200102120,
|
|
2112,
|
|
20111020,
|
|
200200100200200010200200,
|
|
#MEASURE 1/4
|
|
11,
|
|
#MEASURE 1/16
|
|
#BPMCHANGE 194
|
|
2,
|
|
#BPMCHANGE 194
|
|
2,
|
|
#BPMCHANGE 194
|
|
1,
|
|
#BPMCHANGE 194
|
|
1,
|
|
#MEASURE 1/12
|
|
#BPMCHANGE 194
|
|
4,
|
|
#BPMCHANGE 194
|
|
4,
|
|
#BPMCHANGE 194
|
|
4,
|
|
#BPMCHANGE 194
|
|
3,
|
|
#BPMCHANGE 194
|
|
3,
|
|
#BPMCHANGE 194
|
|
3,
|
|
#MEASURE 2/4
|
|
#BPMCHANGE 194
|
|
4000200011102000,
|
|
201111200100,
|
|
22102011,
|
|
#MEASURE 1/24
|
|
#BPMCHANGE 194
|
|
2,
|
|
#BPMCHANGE 194
|
|
2,
|
|
#BPMCHANGE 194
|
|
2,
|
|
#BPMCHANGE 194
|
|
1,
|
|
#BPMCHANGE 194
|
|
1,
|
|
#BPMCHANGE 194
|
|
1,
|
|
#BPMCHANGE 194
|
|
2,
|
|
#BPMCHANGE 194
|
|
2,
|
|
#BPMCHANGE 194
|
|
2,
|
|
#MEASURE 1/32
|
|
#BPMCHANGE 194
|
|
1,
|
|
#BPMCHANGE 194
|
|
1,
|
|
#BPMCHANGE 194
|
|
1,
|
|
#BPMCHANGE 194
|
|
1,
|
|
#MEASURE 2/4
|
|
#BPMCHANGE 194
|
|
200200101110,
|
|
20102122,
|
|
#MEASURE 3/8
|
|
221012,
|
|
#MEASURE 1/24
|
|
#BPMCHANGE 194
|
|
2,
|
|
#BPMCHANGE 194
|
|
2,
|
|
#BPMCHANGE 194
|
|
2,
|
|
#MEASURE 1/4
|
|
#BPMCHANGE 194
|
|
2120,
|
|
#MEASURE 1/24
|
|
#BPMCHANGE 194
|
|
1,
|
|
#BPMCHANGE 194
|
|
1,
|
|
#BPMCHANGE 194
|
|
1,
|
|
#BPMCHANGE 194
|
|
2,
|
|
#BPMCHANGE 194
|
|
2,
|
|
#BPMCHANGE 194
|
|
2,
|
|
#MEASURE 2/4
|
|
#BPMCHANGE 194
|
|
100000100200100020100000,
|
|
#MEASURE 1/4
|
|
22,
|
|
#MEASURE 1/32
|
|
#BPMCHANGE 194
|
|
2,
|
|
#BPMCHANGE 194
|
|
2,
|
|
#BPMCHANGE 194
|
|
2,
|
|
#BPMCHANGE 194
|
|
2,
|
|
#MEASURE 1/8
|
|
#BPMCHANGE 194
|
|
2,
|
|
#MEASURE 2/4
|
|
100200101210,
|
|
#MEASURE 1/4
|
|
212,
|
|
#MEASURE 1/32
|
|
#BPMCHANGE 194
|
|
1,
|
|
#BPMCHANGE 194
|
|
1,
|
|
#BPMCHANGE 194
|
|
1,
|
|
#BPMCHANGE 194
|
|
1,
|
|
#BPMCHANGE 194
|
|
1,
|
|
#BPMCHANGE 194
|
|
1,
|
|
#BPMCHANGE 194
|
|
1,
|
|
#BPMCHANGE 194
|
|
1,
|
|
#MEASURE 2/4
|
|
#BPMCHANGE 194
|
|
20201001,
|
|
200000200200101010100000,
|
|
#SCROLL 1.67
|
|
100000200000101010200100,
|
|
#MEASURE -1/4
|
|
#BPMCHANGE -1552
|
|
#SCROLL 2
|
|
4,
|
|
#MEASURE 7/32
|
|
#BPMCHANGE 194
|
|
0,
|
|
#MEASURE 1/24
|
|
#BPMCHANGE 194
|
|
#SCROLL 1.67
|
|
1,
|
|
#BPMCHANGE 194
|
|
1,
|
|
#BPMCHANGE 194
|
|
1,
|
|
#BPMCHANGE 194
|
|
2,
|
|
#BPMCHANGE 194
|
|
2,
|
|
#BPMCHANGE 194
|
|
2,
|
|
#MEASURE 1/4
|
|
#BPMCHANGE 194
|
|
100200101010,
|
|
#MEASURE 1/32
|
|
#BPMCHANGE 194
|
|
2,
|
|
#BPMCHANGE 194
|
|
2,
|
|
#MEASURE 1/16
|
|
#BPMCHANGE 194
|
|
2,
|
|
#MEASURE 1/32
|
|
#BPMCHANGE 194
|
|
2,
|
|
#BPMCHANGE 194
|
|
2,
|
|
#MEASURE 1/16
|
|
#BPMCHANGE 194
|
|
2,
|
|
#MEASURE 1/4
|
|
202110,
|
|
100200101010,
|
|
#MEASURE 1/8
|
|
11,
|
|
#MEASURE 1/24
|
|
#BPMCHANGE 194
|
|
2,
|
|
#BPMCHANGE 194
|
|
2,
|
|
#BPMCHANGE 194
|
|
2,
|
|
#MEASURE 1/16
|
|
#BPMCHANGE 194
|
|
1,
|
|
1,
|
|
1,
|
|
1,
|
|
#MEASURE 1/24
|
|
#BPMCHANGE 194
|
|
2,
|
|
#BPMCHANGE 194
|
|
2,
|
|
#BPMCHANGE 194
|
|
2,
|
|
#BPMCHANGE 194
|
|
2,
|
|
#BPMCHANGE 194
|
|
2,
|
|
#BPMCHANGE 194
|
|
2,
|
|
#MEASURE 1/32
|
|
#BPMCHANGE 194
|
|
1,
|
|
#GOGOEND
|
|
#BPMCHANGE 194
|
|
1,
|
|
#BPMCHANGE 194
|
|
1,
|
|
#BPMCHANGE 194
|
|
1,
|
|
#BPMCHANGE 194
|
|
1,
|
|
#BPMCHANGE 194
|
|
1,
|
|
#BPMCHANGE 194
|
|
1,
|
|
#BPMCHANGE 194
|
|
1,
|
|
#MEASURE 4/4
|
|
#BPMCHANGE 185
|
|
#SCROLL 1
|
|
3340,
|
|
#BPMCHANGE 184
|
|
300030002000
|
|
#SCROLL 2
|
|
0120,
|
|
#BPMCHANGE 183
|
|
#SCROLL 1
|
|
30000000000000000000000030000000
|
|
#SCROLL 1.5
|
|
2000200020000000
|
|
#SCROLL 1
|
|
400000
|
|
#SCROLL 2
|
|
500000000800
|
|
#SCROLL 0.5
|
|
500000800000000000200000000000,
|
|
#BPMCHANGE 182
|
|
#SCROLL 1
|
|
300000000000300000200000100000000000
|
|
#SCROLL 0.5
|
|
508508000000,
|
|
#MEASURE 2/4
|
|
#BPMCHANGE 180
|
|
#SCROLL 1
|
|
400
|
|
#SCROLL 1.5
|
|
5,
|
|
800000
|
|
#SCROLL 1
|
|
400001,
|
|
#BPMCHANGE 176
|
|
43,
|
|
400000
|
|
#BPMCHANGE 140
|
|
40
|
|
#SCROLL 2
|
|
1110,
|
|
#BPMCHANGE 150
|
|
#SCROLL 1
|
|
41,
|
|
#BPMCHANGE 170
|
|
#SCROLL 0.8
|
|
10000000
|
|
#BPMCHANGE 130
|
|
#SCROLL 1
|
|
20000002,
|
|
450000000000000000000000000000008000000000000000000000000000000000000000500000008000000000000000,
|
|
#BARLINEOFF
|
|
508058000000,
|
|
,
|
|
7008,
|
|
,
|
|
,
|
|
#END
|