719 lines
11 KiB
Plaintext
719 lines
11 KiB
Plaintext
// PeepoDrumKit 2022/09/10
|
|
TITLE:conflict
|
|
SUBTITLE:--siromaru + cranky ft. Pico
|
|
BPM:160
|
|
PREIMAGE:conflict.png
|
|
WAVE:conflict.ogg
|
|
OFFSET:-1.725
|
|
DEMOSTART:12.975
|
|
GENRE:バラエティ
|
|
MAKER:sulf
|
|
|
|
COURSE:Oni
|
|
LEVEL:10
|
|
SCOREINIT:
|
|
SCOREDIFF:
|
|
|
|
#START
|
|
1111,
|
|
1000100010001111,
|
|
10101011,
|
|
1000100010001111,
|
|
10201000
|
|
#LYRIC In a desperate conflict
|
|
10201222,
|
|
1020100010201022,
|
|
#LYRIC With a ruthless enemy
|
|
2012022012021120,
|
|
11101120
|
|
#LYRIC zuorhi viyantas was festsu ruor proi
|
|
22222220,
|
|
#GOGOSTART
|
|
3012102210112012,
|
|
1001101010
|
|
#LYRIC yuk dalfe suoivo swenne yat vu henvi nes
|
|
202020,
|
|
1011201210112021,
|
|
200220111010
|
|
#LYRIC sho fu briyu praffi stassui tsenva chies
|
|
2020,
|
|
1011201220212022,
|
|
200210212022
|
|
#LYRIC ien ryus sois nyat pyaro shennie fru
|
|
1120,
|
|
1022201110212012,
|
|
30303
|
|
#LYRIC prasueno
|
|
232,
|
|
#LYRIC turoden shes vi hyu vu praviya
|
|
3011201210112011,
|
|
2001202120
|
|
#LYRIC tyu prostes fis hien hesnie ryanmie proshuka
|
|
221120,
|
|
1011201220212022,
|
|
100210212022
|
|
#LYRIC wi swen ryasta grouts froine shienhie var yat
|
|
1120,
|
|
1022201110212011,
|
|
2012102220112021,
|
|
#LYRIC nyam raika rit skuois trapa tof
|
|
2011201220122012,
|
|
100000000200500000000000000000000008000000000000,
|
|
#GOGOEND
|
|
#LYRIC
|
|
3011202011202011,
|
|
2020112011102020,
|
|
3012202012202012,
|
|
2020122022202010,
|
|
3011102011102011,
|
|
1020111011112220,
|
|
3022112011112121,
|
|
4004004004004040,
|
|
#LYRIC ti pyar vie iyad ra che uf kro sho
|
|
10112012,
|
|
12112022,
|
|
1000202020002022,
|
|
1000002220201020,
|
|
#LYRIC rat dava rof nii proti ei kof
|
|
10221012,
|
|
1010202210001020,
|
|
11221012,
|
|
1021212120102020,
|
|
#LYRIC ryuf voshu to ryaba ya kat kosu is
|
|
10101012,
|
|
10101011,
|
|
1000100010001022,
|
|
12121011,
|
|
#LYRIC vi rien tsen vu hies taha chies ni ien fru
|
|
1011202210112011,
|
|
1011202210112011,
|
|
1122112212121212,
|
|
1111222230004000,
|
|
3,
|
|
#MEASURE 3/4
|
|
,
|
|
#MEASURE 4/4
|
|
#LYRIC
|
|
1,
|
|
#MEASURE 3/4
|
|
000022,
|
|
#MEASURE 4/4
|
|
12121212,
|
|
#MEASURE 3/4
|
|
121212,
|
|
#MEASURE 4/4
|
|
100000200200200000100200100000200200100100202020,
|
|
#MEASURE 3/4
|
|
201122201121,
|
|
#MEASURE 4/4
|
|
10221120
|
|
#LYRIC A man born to fight
|
|
22201010,
|
|
#MEASURE 3/4
|
|
202211202212,
|
|
#MEASURE 4/4
|
|
2012121012201111,
|
|
#MEASURE 3/4
|
|
#LYRIC An enemy bent on conquest
|
|
202012202012,
|
|
#MEASURE 4/4
|
|
1012202011201022,
|
|
#MEASURE 3/4
|
|
200200100000100200200200101010100000,
|
|
#MEASURE 4/4
|
|
100100200200
|
|
#LYRIC Let battle commence
|
|
100100200000100200200000200000202020,
|
|
#MEASURE 3/4
|
|
225008,
|
|
#MEASURE 4/4
|
|
#LYRIC
|
|
202020200100000000100000200100000000100000200100,
|
|
#MEASURE 3/4
|
|
001021001111,
|
|
#MEASURE 4/4
|
|
1001021011121011,
|
|
#MEASURE 3/4
|
|
021011201121,
|
|
#MEASURE 4/4
|
|
1011022011221022,
|
|
#MEASURE 3/4
|
|
012221001111,
|
|
#MEASURE 4/4
|
|
100000202020200200200000100100200200100000400000,
|
|
30030030
|
|
#LYRIC zuorhi viyantas was festsu ruor proi
|
|
33002020,
|
|
#GOGOSTART
|
|
3011111120111212,
|
|
1022221110
|
|
#LYRIC yuk dalfe suoivo swenne yat vu henvi nes
|
|
202010,
|
|
1012121210112222,
|
|
100220111120
|
|
#LYRIC sho fu briyu praffi stassui tsenva chies
|
|
1122,
|
|
1011121210111222,
|
|
200220112220
|
|
#LYRIC ien ryus sois nyat pyaro shennie fru
|
|
1120,
|
|
1002100120022011,
|
|
3022202210
|
|
#LYRIC prasueno
|
|
211020,
|
|
#LYRIC turoden shes vi hyu vu praviya
|
|
1011221210211122,
|
|
1012221210
|
|
#LYRIC tyu prostes fis hien hesnie ryanmie proshuka
|
|
221010,
|
|
1011221210211120,
|
|
101220101022
|
|
#LYRIC wi swen ryasta grouts froine shienhie var yat
|
|
2110,
|
|
1011101120221022,
|
|
2011201220211022,
|
|
#LYRIC nyam raika rit skuois trapa tof
|
|
1002100120021001,
|
|
2003400440043004,
|
|
4004600000000080,
|
|
1011211021102111,
|
|
2221221122112111,
|
|
#GOGOEND
|
|
#LYRIC
|
|
3,
|
|
,
|
|
,
|
|
,
|
|
#END
|
|
|
|
COURSE:Hard
|
|
LEVEL:7
|
|
SCOREINIT:
|
|
SCOREDIFF:
|
|
|
|
#START
|
|
1111,
|
|
1111,
|
|
1111,
|
|
1000100010001111,
|
|
11
|
|
#LYRIC In a desperate conflict
|
|
11,
|
|
1111,
|
|
#LYRIC With a ruthless enemy
|
|
2222,
|
|
500000000000000000000000
|
|
#LYRIC zuorhi viyantas was festsu ruor proi
|
|
000000000008000000000000,
|
|
#GOGOSTART
|
|
11112211,
|
|
20101
|
|
#LYRIC yuk dalfe suoivo swenne yat vu henvi nes
|
|
122,
|
|
11112212,
|
|
100220001010
|
|
#LYRIC sho fu briyu praffi stassui tsenva chies
|
|
2000,
|
|
11112222,
|
|
100220001000
|
|
#LYRIC ien ryus sois nyat pyaro shennie fru
|
|
2020,
|
|
1002200110022003,
|
|
30303
|
|
#LYRIC prasueno
|
|
030,
|
|
#LYRIC turoden shes vi hyu vu praviya
|
|
11112211,
|
|
20201
|
|
#LYRIC tyu prostes fis hien hesnie ryanmie proshuka
|
|
222,
|
|
11112211,
|
|
200220001002
|
|
#LYRIC wi swen ryasta grouts froine shienhie var yat
|
|
2002,
|
|
2001100220022001,
|
|
1001100220022001,
|
|
#LYRIC nyam raika rit skuois trapa tof
|
|
12121212,
|
|
100000000200500000000000000000000008000000000000,
|
|
#GOGOEND
|
|
#LYRIC
|
|
3002201002201002,
|
|
2010022011102020,
|
|
3002201002201002,
|
|
2010022022202000,
|
|
3002201002201002,
|
|
2010022010102020,
|
|
3002201002201010,
|
|
3003003003003000,
|
|
#LYRIC ti pyar vie iyad ra che uf kro sho
|
|
2020,
|
|
2020,
|
|
1020,
|
|
5000802220002000,
|
|
#LYRIC rat dava rof nii proti ei kof
|
|
10002022,
|
|
20102002,
|
|
20102011,
|
|
2000222020101010,
|
|
#LYRIC ryuf voshu to ryaba ya kat kosu is
|
|
20102011,
|
|
20102011,
|
|
20102011,
|
|
2211,
|
|
#LYRIC vi rien tsen vu hies taha chies ni ien fru
|
|
21212121,
|
|
21212121,
|
|
21212121,
|
|
20223030,
|
|
5,
|
|
#MEASURE 3/4
|
|
008,
|
|
#MEASURE 4/4
|
|
#LYRIC
|
|
2,
|
|
#MEASURE 3/4
|
|
000022,
|
|
#MEASURE 4/4
|
|
2002202002202002,
|
|
#MEASURE 3/4
|
|
202002202020,
|
|
#MEASURE 4/4
|
|
2500,
|
|
#MEASURE 3/4
|
|
008,
|
|
#MEASURE 4/4
|
|
20011010
|
|
#LYRIC A man born to fight
|
|
02202001,
|
|
#MEASURE 3/4
|
|
101002201010,
|
|
#MEASURE 4/4
|
|
1002202001101002,
|
|
#MEASURE 3/4
|
|
#LYRIC An enemy bent on conquest
|
|
202001102020,
|
|
#MEASURE 4/4
|
|
1002202001101002,
|
|
#MEASURE 3/4
|
|
202001101010,
|
|
#MEASURE 4/4
|
|
2002
|
|
#LYRIC Let battle commence
|
|
202011102000,
|
|
#MEASURE 3/4
|
|
202040001110,
|
|
#MEASURE 4/4
|
|
#LYRIC
|
|
0001001001001001,
|
|
#MEASURE 3/4
|
|
001001001111,
|
|
#MEASURE 4/4
|
|
1001001001001001,
|
|
#MEASURE 3/4
|
|
001001001111,
|
|
#MEASURE 4/4
|
|
1001001001001001,
|
|
#MEASURE 3/4
|
|
001001001111,
|
|
#MEASURE 4/4
|
|
50000800,
|
|
30030030
|
|
#LYRIC zuorhi viyantas was festsu ruor proi
|
|
03004000,
|
|
#GOGOSTART
|
|
1011100010111000,
|
|
2000200010
|
|
#LYRIC yuk dalfe suoivo swenne yat vu henvi nes
|
|
222010,
|
|
1011100010111000,
|
|
200220001022
|
|
#LYRIC sho fu briyu praffi stassui tsenva chies
|
|
2010,
|
|
1011100010111000,
|
|
200220001022
|
|
#LYRIC ien ryus sois nyat pyaro shennie fru
|
|
2010,
|
|
1002200110022000,
|
|
30300
|
|
#LYRIC prasueno
|
|
011,
|
|
#LYRIC turoden shes vi hyu vu praviya
|
|
1011101010111000,
|
|
2002201010
|
|
#LYRIC tyu prostes fis hien hesnie ryanmie proshuka
|
|
222010,
|
|
1011101010111000,
|
|
200220101022
|
|
#LYRIC wi swen ryasta grouts froine shienhie var yat
|
|
2010,
|
|
1011101020222000,
|
|
1011101020222000,
|
|
#LYRIC nyam raika rit skuois trapa tof
|
|
1002200110022001,
|
|
1000400010004001,
|
|
1600,
|
|
,
|
|
000000000000000000000000000000000008000000000000,
|
|
#GOGOEND
|
|
#LYRIC
|
|
3,
|
|
,
|
|
,
|
|
,
|
|
#END
|
|
|
|
COURSE:Normal
|
|
LEVEL:5
|
|
SCOREINIT:
|
|
SCOREDIFF:
|
|
|
|
#START
|
|
1111,
|
|
1111,
|
|
1111,
|
|
10101011,
|
|
11
|
|
#LYRIC In a desperate conflict
|
|
11,
|
|
1111,
|
|
#LYRIC With a ruthless enemy
|
|
1212,
|
|
500000000000000000000000
|
|
#LYRIC zuorhi viyantas was festsu ruor proi
|
|
000000000008000000000000,
|
|
#GOGOSTART
|
|
10102011,
|
|
20100
|
|
#LYRIC yuk dalfe suoivo swenne yat vu henvi nes
|
|
111,
|
|
20202211,
|
|
222000
|
|
#LYRIC sho fu briyu praffi stassui tsenva chies
|
|
10,
|
|
20202211,
|
|
220
|
|
#LYRIC ien ryus sois nyat pyaro shennie fru
|
|
2,
|
|
2121,
|
|
30303
|
|
#LYRIC prasueno
|
|
030,
|
|
#LYRIC turoden shes vi hyu vu praviya
|
|
10102011,
|
|
20100
|
|
#LYRIC tyu prostes fis hien hesnie ryanmie proshuka
|
|
111,
|
|
20202211,
|
|
121000
|
|
#LYRIC wi swen ryasta grouts froine shienhie var yat
|
|
20,
|
|
20112020,
|
|
20112020,
|
|
#LYRIC nyam raika rit skuois trapa tof
|
|
1122,
|
|
300000000000600000000000000000000008000000000000,
|
|
#GOGOEND
|
|
#LYRIC
|
|
30110110,
|
|
11012220,
|
|
30110110,
|
|
11012222,
|
|
30110110,
|
|
11012220,
|
|
30110110,
|
|
3003003003003000,
|
|
#LYRIC ti pyar vie iyad ra che uf kro sho
|
|
2020,
|
|
2020,
|
|
2020,
|
|
2,
|
|
#LYRIC rat dava rof nii proti ei kof
|
|
20002002,
|
|
2020,
|
|
2020,
|
|
20001110,
|
|
#LYRIC ryuf voshu to ryaba ya kat kosu is
|
|
1111,
|
|
1111,
|
|
1111,
|
|
1111,
|
|
#LYRIC vi rien tsen vu hies taha chies ni ien fru
|
|
21212121,
|
|
21212121,
|
|
21212121,
|
|
50082020,
|
|
3,
|
|
#MEASURE 3/4
|
|
000022,
|
|
#MEASURE 4/4
|
|
#LYRIC
|
|
2,
|
|
#MEASURE 3/4
|
|
000022,
|
|
#MEASURE 4/4
|
|
20222020,
|
|
#MEASURE 3/4
|
|
222022,
|
|
#MEASURE 4/4
|
|
2500,
|
|
#MEASURE 3/4
|
|
008,
|
|
#MEASURE 4/4
|
|
2022
|
|
#LYRIC A man born to fight
|
|
0220,
|
|
#MEASURE 3/4
|
|
220111,
|
|
#MEASURE 4/4
|
|
20220220,
|
|
#MEASURE 3/4
|
|
#LYRIC An enemy bent on conquest
|
|
220222,
|
|
#MEASURE 4/4
|
|
10110110,
|
|
#MEASURE 3/4
|
|
110111,
|
|
#MEASURE 4/4
|
|
20
|
|
#LYRIC Let battle commence
|
|
220220,
|
|
#MEASURE 3/4
|
|
225008,
|
|
#MEASURE 4/4
|
|
#LYRIC
|
|
2020003003003003,
|
|
#MEASURE 3/4
|
|
003003005000,
|
|
#MEASURE 4/4
|
|
0080003003003003,
|
|
#MEASURE 3/4
|
|
003003005000,
|
|
#MEASURE 4/4
|
|
0080003003003003,
|
|
#MEASURE 3/4
|
|
003004002020,
|
|
#MEASURE 4/4
|
|
5008,
|
|
30030030
|
|
#LYRIC zuorhi viyantas was festsu ruor proi
|
|
03004000,
|
|
#GOGOSTART
|
|
10102011,
|
|
20200
|
|
#LYRIC yuk dalfe suoivo swenne yat vu henvi nes
|
|
111,
|
|
20201121,
|
|
212000
|
|
#LYRIC sho fu briyu praffi stassui tsenva chies
|
|
10,
|
|
20202212,
|
|
222000
|
|
#LYRIC ien ryus sois nyat pyaro shennie fru
|
|
20,
|
|
1122,
|
|
30303
|
|
#LYRIC prasueno
|
|
011,
|
|
#LYRIC turoden shes vi hyu vu praviya
|
|
10121011,
|
|
20201
|
|
#LYRIC tyu prostes fis hien hesnie ryanmie proshuka
|
|
011,
|
|
10202211,
|
|
221022
|
|
#LYRIC wi swen ryasta grouts froine shienhie var yat
|
|
20,
|
|
10112020,
|
|
20112020,
|
|
#LYRIC nyam raika rit skuois trapa tof
|
|
10102022,
|
|
3434,
|
|
3600,
|
|
,
|
|
000000000000000000000000000000000008000000000000,
|
|
#GOGOEND
|
|
#LYRIC
|
|
3,
|
|
,
|
|
,
|
|
,
|
|
#END
|
|
|
|
COURSE:Easy
|
|
LEVEL:4
|
|
SCOREINIT:
|
|
SCOREDIFF:
|
|
|
|
#START
|
|
1111,
|
|
1111,
|
|
1111,
|
|
1111,
|
|
11
|
|
#LYRIC In a desperate conflict
|
|
11,
|
|
1111,
|
|
#LYRIC With a ruthless enemy
|
|
2222,
|
|
500000000000000000000000
|
|
#LYRIC zuorhi viyantas was festsu ruor proi
|
|
000008000000000000000000,
|
|
#GOGOSTART
|
|
1111,
|
|
20200
|
|
#LYRIC yuk dalfe suoivo swenne yat vu henvi nes
|
|
020,
|
|
1111,
|
|
220
|
|
#LYRIC sho fu briyu praffi stassui tsenva chies
|
|
2,
|
|
1112,
|
|
220
|
|
#LYRIC ien ryus sois nyat pyaro shennie fru
|
|
2,
|
|
1111,
|
|
40404
|
|
#LYRIC prasueno
|
|
000,
|
|
#LYRIC turoden shes vi hyu vu praviya
|
|
1111,
|
|
10200
|
|
#LYRIC tyu prostes fis hien hesnie ryanmie proshuka
|
|
020,
|
|
1112,
|
|
210
|
|
#LYRIC wi swen ryasta grouts froine shienhie var yat
|
|
1,
|
|
2121,
|
|
2121,
|
|
#LYRIC nyam raika rit skuois trapa tof
|
|
1122,
|
|
300000000000600000000000000000000008000000000000,
|
|
#GOGOEND
|
|
#LYRIC
|
|
30010010,
|
|
01001010,
|
|
30010010,
|
|
01002020,
|
|
30010010,
|
|
01001010,
|
|
30010010,
|
|
5008,
|
|
#LYRIC ti pyar vie iyad ra che uf kro sho
|
|
2020,
|
|
2020,
|
|
2020,
|
|
2,
|
|
#LYRIC rat dava rof nii proti ei kof
|
|
2020,
|
|
2020,
|
|
2020,
|
|
2,
|
|
#LYRIC ryuf voshu to ryaba ya kat kosu is
|
|
1110,
|
|
1110,
|
|
1120,
|
|
1120,
|
|
#LYRIC vi rien tsen vu hies taha chies ni ien fru
|
|
1122,
|
|
1122,
|
|
1112,
|
|
1112,
|
|
3,
|
|
#MEASURE 3/4
|
|
,
|
|
#MEASURE 4/4
|
|
#LYRIC
|
|
2,
|
|
#MEASURE 3/4
|
|
,
|
|
#MEASURE 4/4
|
|
2022,
|
|
#MEASURE 3/4
|
|
022,
|
|
#MEASURE 4/4
|
|
2,
|
|
#MEASURE 3/4
|
|
508,
|
|
#MEASURE 4/4
|
|
2002
|
|
#LYRIC A man born to fight
|
|
0020,
|
|
#MEASURE 3/4
|
|
020010,
|
|
#MEASURE 4/4
|
|
20020020,
|
|
#MEASURE 3/4
|
|
#LYRIC An enemy bent on conquest
|
|
020020,
|
|
#MEASURE 4/4
|
|
20020020,
|
|
#MEASURE 3/4
|
|
020010,
|
|
#MEASURE 4/4
|
|
20
|
|
#LYRIC Let battle commence
|
|
020020,
|
|
#MEASURE 3/4
|
|
250,
|
|
#MEASURE 4/4
|
|
#LYRIC
|
|
80030030,
|
|
#MEASURE 3/4
|
|
030050,
|
|
#MEASURE 4/4
|
|
08030030,
|
|
#MEASURE 3/4
|
|
030030,
|
|
#MEASURE 4/4
|
|
5,
|
|
#MEASURE 3/4
|
|
008,
|
|
#MEASURE 4/4
|
|
22250080,
|
|
3003
|
|
#LYRIC zuorhi viyantas was festsu ruor proi
|
|
0030,
|
|
#GOGOSTART
|
|
1111,
|
|
20200
|
|
#LYRIC yuk dalfe suoivo swenne yat vu henvi nes
|
|
020,
|
|
1112,
|
|
220
|
|
#LYRIC sho fu briyu praffi stassui tsenva chies
|
|
2,
|
|
1111,
|
|
220
|
|
#LYRIC ien ryus sois nyat pyaro shennie fru
|
|
2,
|
|
1111,
|
|
40404
|
|
#LYRIC prasueno
|
|
040,
|
|
#LYRIC turoden shes vi hyu vu praviya
|
|
10102011,
|
|
10200
|
|
#LYRIC tyu prostes fis hien hesnie ryanmie proshuka
|
|
020,
|
|
1121,
|
|
222000
|
|
#LYRIC wi swen ryasta grouts froine shienhie var yat
|
|
20,
|
|
10102220,
|
|
10102220,
|
|
#LYRIC nyam raika rit skuois trapa tof
|
|
1212,
|
|
10201120,
|
|
3600,
|
|
,
|
|
0008,
|
|
#GOGOEND
|
|
#LYRIC
|
|
3,
|
|
,
|
|
,
|
|
,
|
|
#END
|