Files
sulf-customs/O.N.G.E.K.I/Don't Fight The Music/Dont Fight The Music.tja
T
2026-04-19 21:24:37 +12:00

1374 lines
13 KiB
Plaintext

// PeepoDrumKit 2025/09/03
TITLE:Don't Fight The Music
SUBTITLE:黒魔 - [オンゲキ]
BPM:195
WAVE:Dont Fight The Music.ogg
PREIMAGE:Dont Fight The Music.png
OFFSET:-0.542
DEMOSTART:107.231
GENRE:ゲームミュージック
MAKER:sulf
COURSE:Edit
LEVEL:10
#START
#MEASURE 2/4
0,
#MEASURE 1/16
#SCROLL 2
0,
#SCROLL 2.375
0,
#SCROLL 2.75
0,
#SCROLL 3.125
0,
#SCROLL 3.5
0,
#SCROLL 3.875
0,
#SCROLL 4.25
0,
#SCROLL 4.625
0,
#MEASURE 1/4
#SCROLL 2
4,
#MEASURE 3/4
#SCROLL 1
101210,
#MEASURE 4/4
200111202122,
200000000000000000200200100000000000200000001000,
200020001000
#SCROLL 5
5800,
#MEASURE 13/8
#SCROLL 1.2
40101140101140112011221122,
40101140101140112011112211,
#MEASURE 3/4
#SCROLL 1
400030000400400400,
300030000400400400,
#MEASURE 2/4
#SCROLL 1.1
302211,
202111,
#MEASURE 4/4
#SCROLL 1.2
401
#SCROLL 1
201202202,
202212212200,
#MEASURE 5/4
#SCROLL 0.8
212212121121100,
#MEASURE 4/4
#SCROLL 2
5,
000000000080
#SCROLL 5
5800,
#SCROLL 1
22112211,
22112211,
12121212,
1020102010204011,
21112112,
21112111,
21212121,
#SCROLL 1.2
4
#SCROLL 1
12222
#SCROLL 1.5
40,
#SCROLL 1.1
2211221122112011,
2022112022222000,
2222111122112011,
2022112011112000,
202010201110201010201010,
1200120012001200,
#SCROLL 1.5
300
#SCROLL 1
121200121,
222111202111,
#SCROLL 1.5
400
#SCROLL 0.9
111222111,
#SCROLL 1
220
#SCROLL 1.1
121212121,
#SCROLL 1.2
220
#SCROLL 1.3
121221122,
#SCROLL 1.5
333444600800,
#SCROLL 1.2
301122100111,
301222100111,
304403400211,
423131404041,
4343,
3340,
1111222211221122,
1000111120001122,
#GOGOSTART
#BPMCHANGE 200
2010222010102022,
11212211,
4000004000112111,
4004004000003000,
2010222020102020,
2010101020221120,
4000004000112111,
4004004000005080,
#GOGOEND
#SCROLL 1
3022102020112020,
4010102020112020,
3022101020202020,
4010111040001111,
200122100111,
2211,
#MEASURE 3/8
#SCROLL 1.1
404011,
#SCROLL 1.2
404011,
#SCROLL 1.3
404011,
#SCROLL 1.4
404011,
#MEASURE 3/4
#SCROLL 1.5
444400
#SCROLL 2
400,
#SCROLL 1
101210,
#MEASURE 4/4
200112200122,
200000000000000000200200100000000000200000001000,
44
#BPMCHANGE 198
#SCROLL 1.2
30,
#BPMCHANGE 190
#SCROLL 0.75
2,
200112200122,
2000002210002000,
3001004002003000000000
#SCROLL 1
22,
21221122,
400100100200201010201010,
202010100100200100200100,
200010001000200010001000200020001000200000100100,
#MEASURE 2/4
4
#SCROLL 0.95
1
#SCROLL 0.9
2
#SCROLL 0.85
4,
#BPMCHANGE 180
#SCROLL 0.9
1
#SCROLL 0.85
2
#SCROLL 0.8
4
#SCROLL 0.75
1,
#BPMCHANGE 140
#SCROLL 0.9
2
#SCROLL 0.8
4
#BPMCHANGE 150
#SCROLL 0.7
1
#SCROLL 0.75
2,
#MEASURE 3/8
#BPMCHANGE 137
#SCROLL 0.8
4
#SCROLL 0.75
1
#SCROLL 0.7
2,
#MEASURE 4/8
#BPMCHANGE 100
#SCROLL 0.9
4,
#SCROLL 1.5
2
#SCROLL 1.49167
2
#SCROLL 1.48333
2
#SCROLL 1.475
1
#SCROLL 1.46667
1
#SCROLL 1.45833
1
#SCROLL 1.45
2
#SCROLL 1.44167
2
#SCROLL 1.43333
2
#SCROLL 1.425
1
#SCROLL 1.41667
1
#SCROLL 1.40833
1,
#MEASURE 9/16
#BPMCHANGE 103
#SCROLL 1.35
1,
#MEASURE 4/4
#BPMCHANGE 215
#SCROLL 0.5
200000000000
#BPMCHANGE 190
1122,
#SCROLL 1
21221122,
11212111,
2010102010112122,
2012102010102010,
21122112,
21212121,
#BPMCHANGE 183
2010102020112122,
#MEASURE 2/4
#BPMCHANGE 175
112211,
#MEASURE 7/8
2,
#MEASURE 1/4
#BPMCHANGE 200
1122,
#MEASURE 4/4
11221122,
1010101022222000,
#GOGOSTART
4000104000112122,
4004004000003000,
21222122,
2010201020121020,
4000104000112122,
4004004000001000,
#GOGOEND
#SCROLL 1.1
31212122,
4010101020112020,
41122122,
#SCROLL 1.2
400000100000100100100100200000000000101010202020,
200212200212,
200212201200,
400211200211,
211222500000,
8000
#GOGOSTART
#SCROLL 1.6
4000
#SCROLL 1.2
22102020,
212212212121,
500000800000100100200200100100200200200020002000,
21212121,
2120012121201221,
2120112121201221,
2221221122112111,
112221122200,
#SCROLL 1.3
43441344,
4010401020120110,
2122212121222122,
20140140,
21122122,
200100100100200200100100400020004000200040
#GOGOEND
002000,
,
#GOGOSTART
#SCROLL 1.4
4010114010114010,
1140101140112111,
4010114010114010,
100100400000100000100100400000200100202020101010,
#GOGOEND
40112111,
22112211,
#GOGOSTART
2111221122212000,
#GOGOEND
#SCROLL 1.5
400000100000100000400000100000100100400000004000,
040000200
#GOGOSTART
#SCROLL 2
500,
,
,
#GOGOEND
#BARLINEOFF
#SCROLL 1
8,
#END
COURSE:Oni
LEVEL:8
BALLOON:25
#START
,
#MEASURE 1/4
#SCROLL 1
4,
#MEASURE 3/4
#SCROLL 1
101210,
#MEASURE 4/4
200111200122,
2012,
300040003000
#SCROLL 5
5800,
#MEASURE 13/8
#SCROLL 1
4114114150080,
4114114150080,
#MEASURE 3/4
#SCROLL 0.8
400444,
300444,
#MEASURE 2/4
#SCROLL 0.9
301011,
201011,
#MEASURE 4/4
#SCROLL 1
4
#SCROLL 0.75
222,
2222,
#MEASURE 5/4
#SCROLL 1
4,
#MEASURE 4/4
7,
000000000080
#SCROLL 5
5800,
#SCROLL 1
20112012,
20112011,
21112110,
21122140,
20112012,
20112011,
21112110,
#SCROLL 1.2
400
#SCROLL 1.5
4,
#SCROLL 1.1
1110508000401010,
41141240,
2220508000302020,
32232130,
#SCROLL 1
200111200111,
4444,
300121200211,
4343,
#SCROLL 1.5
300
#SCROLL 0.9
100222111,
#SCROLL 1
400
#SCROLL 1.1
100212121,
#SCROLL 1.2
400
#SCROLL 1.3
201201202,
#SCROLL 1.5
333444600800,
#SCROLL 1.2
300300400111,
300400400111,
300300400211,
333444,
4343,
3340,
1010202011102220,
2000101020001110,
#GOGOSTART
#BPMCHANGE 200
21221122,
1222,
40040111,
4004004000003000,
21220122,
2000100020020020,
40040111,
4004004000000000,
#GOGOEND
#SCROLL 1
30404022,
40104022,
40104022,
4000101040001110,
200222100111,
2211,
#MEASURE 3/8
#SCROLL 1.1
330,
#SCROLL 1.2
330,
#SCROLL 1.3
440,
#SCROLL 1.4
440,
#MEASURE 3/4
#SCROLL 1.5
444400
#SCROLL 2
400,
#SCROLL 1
101210,
#MEASURE 4/4
200111200122,
2012,
34
#BPMCHANGE 198
#SCROLL 1.2
68,
#BPMCHANGE 190
#SCROLL 0.5
10102210,
200111200122,
20021020,
3468,
#SCROLL 0.75
5008,
5008,
4121,
4231,
#MEASURE 2/4
#SCROLL 0.7
4004,
#BPMCHANGE 180
04,
#BPMCHANGE 140
#SCROLL 0.8
04
#BPMCHANGE 150
#SCROLL 0.7
01,
#MEASURE 3/8
#BPMCHANGE 137
#SCROLL 0.75
40
#SCROLL 0.6
1,
#MEASURE 4/8
#BPMCHANGE 100
#SCROLL 0.8
4,
#MEASURE 1/32
#BARLINEOFF
#SCROLL 1
5,
#BARLINEON
#SCROLL 1.9375
0,
#SCROLL 1.875
0,
#SCROLL 1.8125
0,
#SCROLL 1.75
0,
#SCROLL 1.6875
0,
#SCROLL 1.625
0,
#SCROLL 1.5625
0,
#SCROLL 1.5
0,
#SCROLL 1.4375
0,
#SCROLL 1.375
0,
#SCROLL 1.3125
0,
#SCROLL 1.25
0,
#SCROLL 1.1875
0,
#SCROLL 1.125
0,
#SCROLL 1.0625
0,
#MEASURE 9/16
#BPMCHANGE 103
#SCROLL 1
8,
#MEASURE 4/4
#BPMCHANGE 215
#SCROLL 2
000
#BPMCHANGE 190
0,
#SCROLL 1
5008,
5008,
5008,
5008,
21120112,
1221,
#BPMCHANGE 183
30040112,
#MEASURE 2/4
#BPMCHANGE 175
111222,
#MEASURE 7/8
2,
#MEASURE 1/4
#BPMCHANGE 200
2220,
#MEASURE 4/4
11221122,
1010101022202000,
#GOGOSTART
40040111,
4004004000003000,
21220122,
2000100020020020,
40040111,
4004004000001000,
#GOGOEND
#SCROLL 1
30404022,
40104022,
40104022,
40114011,
200111200112,
200122200200,
400211200112,
211222500000,
80
#GOGOSTART
#SCROLL 1.5
40
#SCROLL 1.1
1122,
100010002000200010001000200000000200000000200000,
12112220,
21212120,
22012201,
22012202,
21112122,
111222111200,
#SCROLL 1.2
43440344,
3000400010020010,
2022202010111020,
20140040,
21120122,
200000200000400040004
#GOGOEND
000,
,
#GOGOSTART
#SCROLL 1.25
41141141,
1040101040101110,
41141141,
1040101040102220,
#GOGOEND
40112011,
22112210,
#GOGOSTART
222111222200,
#GOGOEND
#SCROLL 1.5
400000000400000000400040,
040000200
#GOGOSTART
#SCROLL 2
500,
,
,
#GOGOEND
#BARLINEOFF
#SCROLL 1
8,
#END
COURSE:Hard
LEVEL:7
#START
,
#MEASURE 1/4
#SCROLL 1.5
4,
#MEASURE 3/4
#SCROLL 1
111,
#MEASURE 4/4
20112011,
2022,
3330,
#MEASURE 13/8
4014014050080,
4014014050080,
#MEASURE 3/4
#SCROLL 0.9
4044,
3044,
#MEASURE 2/4
301,
222,
#MEASURE 4/4
#SCROLL 1
3022,
2222,
#MEASURE 5/4
4,
#MEASURE 4/4
5,
00000800,
20102011,
2121,
20112010,
20112020,
20102011,
2121,
20112010,
400
#SCROLL 1.2
4,
#SCROLL 1
11100401,
40140140,
22100401,
40140140,
20112011,
4444,
30112022,
4444,
#SCROLL 1.2
30
#SCROLL 0.9
102211,
#SCROLL 1
40102211,
#SCROLL 1.1
4222,
#SCROLL 1.2
111222100000,
#SCROLL 1
30304011,
30404011,
30304022,
333444,
3044,
3340,
11221122,
20112011,
#GOGOSTART
#BPMCHANGE 200
21120122,
1212,
30030220,
4004004000004000,
21120122,
1000100020020020,
40030110,
4004004000000000,
#GOGOEND
3442,
4142,
4142,
40104011,
20221010,
2211,
#MEASURE 3/8
#SCROLL 1.1
440,
440,
#SCROLL 1.2
440,
440,
#MEASURE 3/4
#SCROLL 1.3
4440
#SCROLL 1.5
40,
#SCROLL 1
111,
#MEASURE 4/4
20112022,
2011,
44
#BPMCHANGE 198
30,
#BPMCHANGE 190
#SCROLL 0.9
10102210,
20112022,
20011020,
3430,
#SCROLL 0.75
5008,
50000800,
4011,
4211,
#MEASURE 2/4
#SCROLL 0.7
4004,
#BPMCHANGE 180
04,
#BPMCHANGE 140
#SCROLL 0.8
04
#BPMCHANGE 150
00,
#MEASURE 3/8
#BPMCHANGE 137
#SCROLL 0.75
4,
#MEASURE 4/8
#BPMCHANGE 100
#SCROLL 0.9
4,
#MEASURE 1/32
#BARLINEOFF
#SCROLL 1
5,
#BARLINEON
#SCROLL 1.9375
0,
#SCROLL 1.875
0,
#SCROLL 1.8125
0,
#SCROLL 1.75
0,
#SCROLL 1.6875
0,
#SCROLL 1.625
0,
#SCROLL 1.5625
0,
#SCROLL 1.5
0,
#SCROLL 1.4375
0,
#SCROLL 1.375
0,
#SCROLL 1.3125
0,
#SCROLL 1.25
0,
#SCROLL 1.1875
0,
#SCROLL 1.125
0,
#SCROLL 1.0625
0,
#MEASURE 9/16
#BPMCHANGE 103
#SCROLL 1
8,
#MEASURE 4/4
#BPMCHANGE 215
#SCROLL 2
000
#BPMCHANGE 190
0,
#SCROLL 1
5008,
5008,
5008,
50000800,
21120122,
1211,
#BPMCHANGE 183
44,
#MEASURE 2/4
#BPMCHANGE 175
111111,
#MEASURE 7/8
2,
#MEASURE 1/4
#BPMCHANGE 200
22,
#MEASURE 4/4
10221022,
11202220,
#GOGOSTART
40040110,
4004004000003000,
21120122,
1000100020020020,
40040110,
4004004000000000,
#GOGOEND
#SCROLL 1
3442,
4142,
4142,
40104022,
10112011,
20112020,
40212011,
222222500000,
80
#GOGOSTART
#SCROLL 1.2
400
#SCROLL 1
222,
111100222200,
10112210,
22202220,
12011201,
12011202,
20112011,
22112220,
#SCROLL 1.1
3344,
3000300020020020,
11221022,
20040020,
21120122,
100000200000400040004
#GOGOEND
000,
,
#GOGOSTART
#SCROLL 1.2
40140140,
14014111,
40140140,
14014121,
#GOGOEND
4121,
22102210,
#GOGOSTART
200200100100202020200000,
#GOGOEND
#SCROLL 1.3
400000000400000000400040,
060000800
#GOGOSTART
#SCROLL 2
500,
,
,
#GOGOEND
#BARLINEOFF
#SCROLL 1
8,
#END
COURSE:Normal
LEVEL:4
#START
,
#MEASURE 1/4
0,
#MEASURE 3/4
111,
#MEASURE 4/4
22,
2022,
2210,
#MEASURE 13/8
4004004030000,
4004004040000,
#MEASURE 3/4
34,
34,
#MEASURE 2/4
3,
4,
#MEASURE 4/4
5,
08,
#MEASURE 5/4
4,
#MEASURE 4/4
5,
08,
2011,
2022,
1120,
2222,
2011,
2022,
1120,
4004,
10100400,
40040040,
10100400,
40040040,
1122,
3344,
34,
4444,
3011,
4012,
4022,
111100,
3340,
3440,
3340,
333333,
44,
3340,
10201110,
22,
#GOGOSTART
#BPMCHANGE 200
20110220,
1212,
30030020,
3003003000002000,
20110220,
1120,
40040010,
4004004000000000,
#GOGOEND
3022,
3022,
3022,
3140,
2210,
2211,
#MEASURE 3/8
4,
4,
4,
4,
#MEASURE 2/4
44,
#MEASURE 1/4
0,
#MEASURE 3/4
111,
#MEASURE 4/4
22,
22,
33
#BPMCHANGE 198
30,
#BPMCHANGE 190
1022,
1022,
22,
3330,
5008,
58,
41,
2210,
#MEASURE 2/4
5,
#BPMCHANGE 180
0,
#BPMCHANGE 140
0
#BPMCHANGE 150
0,
#MEASURE 3/8
#BPMCHANGE 137
0,
#MEASURE 4/8
#BPMCHANGE 100
8,
#MEASURE 1/32
#BARLINEOFF
#SCROLL 1
5,
#BARLINEON
#SCROLL 1.9375
0,
#SCROLL 1.875
0,
#SCROLL 1.8125
0,
#SCROLL 1.75
0,
#SCROLL 1.6875
0,
#SCROLL 1.625
0,
#SCROLL 1.5625
0,
#SCROLL 1.5
0,
#SCROLL 1.4375
0,
#SCROLL 1.375
0,
#SCROLL 1.3125
0,
#SCROLL 1.25
0,
#SCROLL 1.1875
0,
#SCROLL 1.125
0,
#SCROLL 1.0625
0,
#MEASURE 9/16
#BPMCHANGE 103
#SCROLL 1
8,
#MEASURE 4/4
#BPMCHANGE 215
#SCROLL 2
000
#BPMCHANGE 190
0,
#SCROLL 1
5008,
5008,
5008,
58,
10010010,
2220,
#BPMCHANGE 183
44,
#MEASURE 2/4
#BPMCHANGE 175
5,
#MEASURE 7/8
8,
#MEASURE 1/4
#BPMCHANGE 200
2,
#MEASURE 4/4
1212,
1120,
#GOGOSTART
40040010,
4004004000001000,
20110220,
1122,
40040010,
4004004000000000,
#GOGOEND
3044,
3043,
3044,
44,
2121,
2122,
2121,
5008,
0
#GOGOSTART
402,
11102220,
1122,
1222,
10011001,
10011002,
2121,
20111010,
4444,
3333,
20201110,
20040000,
20120120,
100000200000400040004
#GOGOEND
000,
,
#GOGOSTART
40040040,
04004010,
40040040,
04004020,
#GOGOEND
1122,
1122,
#GOGOSTART
10102220,
#GOGOEND
400000000400000000400040,
050000800
#GOGOSTART
#SCROLL 2
500,
,
,
#GOGOEND
#BARLINEOFF
8,
#END
COURSE:Easy
LEVEL:2
#START
,
#MEASURE 1/4
0,
#MEASURE 3/4
#SCROLL 0.8
1,
#MEASURE 4/4
22,
2,
11,
#MEASURE 13/8
4000000030000,
4000000040000,
#MEASURE 3/4
3,
3,
#MEASURE 2/4
4,
4,
#MEASURE 4/4
5,
08,
#MEASURE 5/4
4,
#MEASURE 4/4
5,
08,
21,
21,
22,
22,
21,
21,
21,
4,
1,
2,
1,
2,
12,
34,
3,
44,
3,
3,
3,
11,
44,
44,
44,
58,
4,
3,
1110,
22,
#GOGOSTART
#BPMCHANGE 200
20020020,
11,
3,
30030000,
20020020,
12,
40040000,
4,
#GOGOEND
3,
3,
3,
34,
22,
11,
#MEASURE 3/8
4,
,
4,
,
#MEASURE 2/4
4,
#MEASURE 1/4
0,
#MEASURE 3/4
1,
#MEASURE 4/4
22,
2,
3
#BPMCHANGE 198
3,
#BPMCHANGE 190
0,
22,
2,
3,
5,
,
,
08,
#MEASURE 2/4
5,
#BPMCHANGE 180
0,
#BPMCHANGE 140
0
#BPMCHANGE 150
0,
#MEASURE 3/8
#BPMCHANGE 137
0,
#MEASURE 4/8
#BPMCHANGE 100
8,
#MEASURE 1/32
#BARLINEOFF
#SCROLL 1
5,
#BARLINEON
#SCROLL 1.9375
0,
#SCROLL 1.875
0,
#SCROLL 1.8125
0,
#SCROLL 1.75
0,
#SCROLL 1.6875
0,
#SCROLL 1.625
0,
#SCROLL 1.5625
0,
#SCROLL 1.5
0,
#SCROLL 1.4375
0,
#SCROLL 1.375
0,
#SCROLL 1.3125
0,
#SCROLL 1.25
0,
#SCROLL 1.1875
0,
#SCROLL 1.125
0,
#SCROLL 1.0625
0,
#MEASURE 9/16
#BPMCHANGE 103
#SCROLL 1
8,
#MEASURE 4/4
#BPMCHANGE 215
#SCROLL 2
000
#BPMCHANGE 190
0,
#SCROLL 0.8
5008,
5008,
5008,
58,
10010010,
22,
#BPMCHANGE 183
44,
#MEASURE 2/4
#BPMCHANGE 175
5,
#MEASURE 7/8
8,
#MEASURE 1/4
#BPMCHANGE 200
0,
#MEASURE 4/4
11,
22,
#GOGOSTART
40040000,
40040000,
10010010,
22,
40040000,
40040000,
#GOGOEND
34,
34,
34,
34,
12,
1022,
21,
5008,
0
#GOGOSTART
400,
1110,
22,
11,
22,
22,
12,
1110,
44,
33,
2011,
10040000,
20020020,
1000300
#GOGOEND
0,
,
#GOGOSTART
40050000,
08,
40040040,
04004000,
#GOGOEND
11,
1110,
#GOGOSTART
2222,
#GOGOEND
40040040,
050000800
#GOGOSTART
#SCROLL 2
500,
,
,
#GOGOEND
#BARLINEOFF
8,
#END