1496 lines
9.3 KiB
Plaintext
1496 lines
9.3 KiB
Plaintext
// PeepoDrumKit 2022/09/10
|
|
TITLE:CHAOSBLAST
|
|
SUBTITLE:--QURELESS + 柚子花 - [Arcaea]
|
|
BPM:480
|
|
WAVE:CHAOSBLAST.ogg
|
|
OFFSET:0
|
|
DEMOSTART:30.5
|
|
GENRE:ゲームミュージック
|
|
MAKER:sulf
|
|
SEVOL:0
|
|
|
|
COURSE:Edit
|
|
LEVEL:10
|
|
SCOREINIT:
|
|
SCOREDIFF:
|
|
|
|
#START
|
|
#SCROLL 0.5
|
|
3121,
|
|
22222010,
|
|
20102220,
|
|
3222,
|
|
3212,
|
|
10222220,
|
|
10102220,
|
|
1322,
|
|
3121,
|
|
22222010,
|
|
20102220,
|
|
1232,
|
|
1232,
|
|
10222010,
|
|
20102220,
|
|
1322,
|
|
3212,
|
|
11111020,
|
|
10201022,
|
|
20102011,
|
|
10222010,
|
|
1212,
|
|
1212,
|
|
1322,
|
|
3111,
|
|
1111,
|
|
1111,
|
|
10111010,
|
|
11111111,
|
|
11111111,
|
|
1122,
|
|
1020,
|
|
1011,
|
|
20201110,
|
|
2211,
|
|
2210,
|
|
3011,
|
|
2112,
|
|
1121,
|
|
10201111,
|
|
2111,
|
|
2112,
|
|
1121,
|
|
10201111,
|
|
2111,
|
|
2112,
|
|
10102222,
|
|
20101111,
|
|
2011,
|
|
2112,
|
|
1121,
|
|
10201111,
|
|
2111,
|
|
2112,
|
|
1121,
|
|
10201111,
|
|
2111,
|
|
2112,
|
|
10102222,
|
|
20101111,
|
|
2111,
|
|
2112,
|
|
2111,
|
|
22222222,
|
|
#GOGOSTART
|
|
2011,
|
|
1122,
|
|
11101010,
|
|
10102022,
|
|
2211,
|
|
1122,
|
|
1111,
|
|
20222222,
|
|
2011,
|
|
1122,
|
|
1111,
|
|
11102222,
|
|
2211,
|
|
1122,
|
|
10101110,
|
|
22202222,
|
|
20001011,
|
|
1122,
|
|
1111,
|
|
10102022,
|
|
2211,
|
|
1122,
|
|
10101110,
|
|
20222222,
|
|
2011,
|
|
1122,
|
|
10101110,
|
|
10102022,
|
|
2211,
|
|
1122,
|
|
10111110,
|
|
20202222,
|
|
#GOGOEND
|
|
22221022,
|
|
22201110,
|
|
22221022,
|
|
22102222,
|
|
22221022,
|
|
22102020,
|
|
00222210,
|
|
22222222,
|
|
22221022,
|
|
22201110,
|
|
22221011,
|
|
22221111,
|
|
22221022,
|
|
22102020,
|
|
20111110,
|
|
22222222,
|
|
2012,
|
|
1012,
|
|
1122,
|
|
10001110,
|
|
22222000,
|
|
1012,
|
|
11102010,
|
|
10202011,
|
|
1211,
|
|
2212,
|
|
2212,
|
|
10201110,
|
|
22221111,
|
|
22221111,
|
|
22222222,
|
|
2,
|
|
2211,
|
|
2212,
|
|
1221,
|
|
20201110,
|
|
2121,
|
|
2111,
|
|
2221,
|
|
20201110,
|
|
2211,
|
|
20101110,
|
|
20222010,
|
|
1222,
|
|
10222020,
|
|
1222,
|
|
1122,
|
|
1211,
|
|
2121,
|
|
2221,
|
|
2211,
|
|
20201110,
|
|
2121,
|
|
1112,
|
|
1212,
|
|
10201110,
|
|
2211,
|
|
2112,
|
|
1121,
|
|
10201110,
|
|
2121,
|
|
2111,
|
|
20222010,
|
|
10222220,
|
|
1122,
|
|
2212,
|
|
1111,
|
|
2122,
|
|
1121,
|
|
2112,
|
|
2122,
|
|
2211,
|
|
2211,
|
|
2112,
|
|
1121,
|
|
2122,
|
|
2111,
|
|
2211,
|
|
2122,
|
|
1122,
|
|
10222010,
|
|
20111020,
|
|
1112,
|
|
1211,
|
|
20201110,
|
|
20201110,
|
|
1122,
|
|
1222,
|
|
10222010,
|
|
20111020,
|
|
20111020,
|
|
10222010,
|
|
2211,
|
|
2222,
|
|
1111,
|
|
1122,
|
|
4121,
|
|
20102011,
|
|
1212,
|
|
10201111,
|
|
1222,
|
|
20201110,
|
|
22222010,
|
|
2221,
|
|
22201010,
|
|
20111110,
|
|
20102222,
|
|
20102222,
|
|
20111111,
|
|
10222222,
|
|
2112,
|
|
11102020,
|
|
2121,
|
|
20111020,
|
|
20111020,
|
|
20102222,
|
|
11102010,
|
|
22201010,
|
|
22222010,
|
|
1122,
|
|
2121,
|
|
20111020,
|
|
20111122,
|
|
20102220,
|
|
101010202020,
|
|
10222010,
|
|
22201020,
|
|
11102220,
|
|
10102011,
|
|
20111020,
|
|
10202220,
|
|
20111010,
|
|
2121,
|
|
20112020,
|
|
10202220,
|
|
11102222,
|
|
20102011,
|
|
20111020,
|
|
10201110,
|
|
20111010,
|
|
2121,
|
|
2222,
|
|
10202011,
|
|
10222222,
|
|
20102011,
|
|
20111020,
|
|
10202220,
|
|
20111010,
|
|
2121,
|
|
20112020,
|
|
10202220,
|
|
11102222,
|
|
20102011,
|
|
20111020,
|
|
10201110,
|
|
20111010,
|
|
2121,
|
|
1221,
|
|
20111020,
|
|
10222222,
|
|
20001120,
|
|
20111020,
|
|
1221,
|
|
2112,
|
|
1121,
|
|
1122,
|
|
10222220,
|
|
1122,
|
|
#GOGOSTART
|
|
30001111,
|
|
22221111,
|
|
22221111,
|
|
22221111,
|
|
20201111,
|
|
22221111,
|
|
22221111,
|
|
22221111,
|
|
20002222,
|
|
11112222,
|
|
11112222,
|
|
11112222,
|
|
#GOGOEND
|
|
1122,
|
|
11112020,
|
|
1221,
|
|
2212,
|
|
#SCROLL 2
|
|
6,
|
|
,
|
|
8,
|
|
#END
|
|
|
|
COURSE:Oni
|
|
LEVEL:9
|
|
SCOREINIT:
|
|
SCOREDIFF:
|
|
|
|
#START
|
|
#SCROLL 0.5
|
|
3121,
|
|
2021,
|
|
2122,
|
|
3220,
|
|
3212,
|
|
1222,
|
|
1122,
|
|
1320,
|
|
3121,
|
|
2221,
|
|
2122,
|
|
1230,
|
|
1232,
|
|
1220,
|
|
2122,
|
|
1320,
|
|
3212,
|
|
1112,
|
|
1212,
|
|
2021,
|
|
1221,
|
|
1212,
|
|
1212,
|
|
1302,
|
|
3111,
|
|
1111,
|
|
1111,
|
|
1111,
|
|
2222,
|
|
20202011,
|
|
1,
|
|
1020,
|
|
1011,
|
|
2011,
|
|
2210,
|
|
2010,
|
|
3011,
|
|
2112,
|
|
1121,
|
|
10001110,
|
|
2011,
|
|
2112,
|
|
1121,
|
|
10001110,
|
|
2011,
|
|
2112,
|
|
10002220,
|
|
20001110,
|
|
1011,
|
|
2112,
|
|
1121,
|
|
10001110,
|
|
2011,
|
|
2112,
|
|
1121,
|
|
10001110,
|
|
2011,
|
|
2112,
|
|
10002220,
|
|
20001110,
|
|
1011,
|
|
2112,
|
|
2011,
|
|
20002220,
|
|
#GOGOSTART
|
|
2011,
|
|
1122,
|
|
1111,
|
|
1122,
|
|
2011,
|
|
1122,
|
|
1111,
|
|
20202022,
|
|
2011,
|
|
1122,
|
|
1111,
|
|
10102022,
|
|
2011,
|
|
1122,
|
|
1111,
|
|
20202022,
|
|
2011,
|
|
1122,
|
|
1111,
|
|
10102022,
|
|
2011,
|
|
1122,
|
|
1111,
|
|
20202022,
|
|
2011,
|
|
1122,
|
|
1111,
|
|
10102022,
|
|
2011,
|
|
1122,
|
|
1111,
|
|
20202022,
|
|
#GOGOEND
|
|
20001022,
|
|
2101,
|
|
22201022,
|
|
2120,
|
|
22201022,
|
|
2120,
|
|
00222010,
|
|
22201000,
|
|
22201022,
|
|
2120,
|
|
22201022,
|
|
2100,
|
|
22201022,
|
|
2120,
|
|
00222010,
|
|
22201020,
|
|
0012,
|
|
1012,
|
|
1022,
|
|
1011,
|
|
2220,
|
|
1002,
|
|
1121,
|
|
1201,
|
|
1211,
|
|
2210,
|
|
2212,
|
|
1011,
|
|
2211,
|
|
20201110,
|
|
5,
|
|
8,
|
|
2211,
|
|
2010,
|
|
1221,
|
|
2011,
|
|
2121,
|
|
2011,
|
|
2221,
|
|
2011,
|
|
2211,
|
|
2011,
|
|
2221,
|
|
1022,
|
|
1222,
|
|
1022,
|
|
1122,
|
|
1011,
|
|
2121,
|
|
2201,
|
|
2211,
|
|
2011,
|
|
2121,
|
|
2012,
|
|
1022,
|
|
1011,
|
|
2211,
|
|
2012,
|
|
1121,
|
|
2011,
|
|
2021,
|
|
2110,
|
|
2221,
|
|
1222,
|
|
1022,
|
|
2202,
|
|
,
|
|
2122,
|
|
1120,
|
|
2102,
|
|
0020,
|
|
2211,
|
|
2,
|
|
2112,
|
|
0010,
|
|
2122,
|
|
2010,
|
|
2211,
|
|
0010,
|
|
1122,
|
|
1021,
|
|
2112,
|
|
1002,
|
|
0211,
|
|
2011,
|
|
2211,
|
|
2122,
|
|
0222,
|
|
1010,
|
|
2112,
|
|
,
|
|
2121,
|
|
2011,
|
|
2020,
|
|
1111,
|
|
1020,
|
|
4120,
|
|
2121,
|
|
0211,
|
|
1210,
|
|
0222,
|
|
0211,
|
|
2221,
|
|
2210,
|
|
2211,
|
|
2111,
|
|
00102220,
|
|
00102220,
|
|
0111,
|
|
10202022,
|
|
2012,
|
|
1122,
|
|
2121,
|
|
2112,
|
|
0112,
|
|
20102220,
|
|
0121,
|
|
2211,
|
|
0221,
|
|
1120,
|
|
2121,
|
|
2112,
|
|
0112,
|
|
2122,
|
|
1120,
|
|
1222,
|
|
0212,
|
|
11100000,
|
|
1122,
|
|
10222010,
|
|
00102220,
|
|
10222010,
|
|
0112,
|
|
20111020,
|
|
0212,
|
|
11102000,
|
|
1122,
|
|
10222010,
|
|
00201110,
|
|
20111020,
|
|
0111,
|
|
2222,
|
|
0221,
|
|
2122,
|
|
1021,
|
|
20111020,
|
|
00102220,
|
|
10222010,
|
|
0121,
|
|
20111020,
|
|
00102220,
|
|
1222,
|
|
2021,
|
|
20111020,
|
|
00201110,
|
|
20111020,
|
|
1022,
|
|
1221,
|
|
20201110,
|
|
00201022,
|
|
2020,
|
|
2220,
|
|
1,
|
|
1020,
|
|
1,
|
|
1022,
|
|
1020,
|
|
1010,
|
|
#GOGOSTART
|
|
3011,
|
|
10102220,
|
|
1111,
|
|
22202220,
|
|
1011,
|
|
10102220,
|
|
1111,
|
|
22202220,
|
|
1022,
|
|
10102220,
|
|
1111,
|
|
22202220,
|
|
#GOGOEND
|
|
1020,
|
|
11102000,
|
|
1221,
|
|
2210,
|
|
#SCROLL 1
|
|
6,
|
|
,
|
|
8,
|
|
#END
|
|
|
|
COURSE:Hard
|
|
LEVEL:7
|
|
SCOREINIT:
|
|
SCOREDIFF:
|
|
|
|
#START
|
|
#SCROLL 0.4
|
|
3021,
|
|
2221,
|
|
2022,
|
|
1220,
|
|
1212,
|
|
1220,
|
|
1122,
|
|
1120,
|
|
1120,
|
|
1222,
|
|
1222,
|
|
1210,
|
|
1212,
|
|
1020,
|
|
2122,
|
|
0120,
|
|
1212,
|
|
1110,
|
|
1212,
|
|
2210,
|
|
1221,
|
|
0210,
|
|
1212,
|
|
0120,
|
|
1111,
|
|
1111,
|
|
1111,
|
|
1111,
|
|
101010101010,
|
|
101010101010,
|
|
1,
|
|
2020,
|
|
,
|
|
,
|
|
,
|
|
,
|
|
3011,
|
|
1111,
|
|
1111,
|
|
1111,
|
|
1111,
|
|
1111,
|
|
1111,
|
|
1111,
|
|
1111,
|
|
1111,
|
|
1111,
|
|
1111,
|
|
1011,
|
|
1111,
|
|
1111,
|
|
1111,
|
|
1111,
|
|
1111,
|
|
1111,
|
|
1111,
|
|
1111,
|
|
1111,
|
|
1111,
|
|
1111,
|
|
1111,
|
|
1111,
|
|
1,
|
|
2222,
|
|
#GOGOSTART
|
|
2011,
|
|
1122,
|
|
1111,
|
|
1122,
|
|
2211,
|
|
1122,
|
|
1111,
|
|
2222,
|
|
2011,
|
|
1122,
|
|
1111,
|
|
1122,
|
|
2211,
|
|
1122,
|
|
1111,
|
|
2222,
|
|
2011,
|
|
1122,
|
|
1111,
|
|
1122,
|
|
2211,
|
|
1122,
|
|
1111,
|
|
2222,
|
|
2011,
|
|
1122,
|
|
1111,
|
|
1122,
|
|
2211,
|
|
1122,
|
|
1111,
|
|
2222,
|
|
#GOGOEND
|
|
1221,
|
|
2210,
|
|
2212,
|
|
2122,
|
|
1221,
|
|
2210,
|
|
0221,
|
|
2220,
|
|
1221,
|
|
2210,
|
|
2212,
|
|
2122,
|
|
1221,
|
|
2210,
|
|
2112,
|
|
1120,
|
|
2010,
|
|
1010,
|
|
1010,
|
|
1010,
|
|
1010,
|
|
1010,
|
|
1020,
|
|
1022,
|
|
1020,
|
|
1210,
|
|
2211,
|
|
2211,
|
|
2211,
|
|
2211,
|
|
5,
|
|
8,
|
|
2010,
|
|
2012,
|
|
1020,
|
|
2211,
|
|
2010,
|
|
2011,
|
|
2010,
|
|
2211,
|
|
2010,
|
|
2010,
|
|
2220,
|
|
1222,
|
|
1022,
|
|
1020,
|
|
1120,
|
|
1010,
|
|
2010,
|
|
1021,
|
|
2010,
|
|
2210,
|
|
2020,
|
|
1110,
|
|
2012,
|
|
1020,
|
|
1010,
|
|
2210,
|
|
1020,
|
|
2211,
|
|
2010,
|
|
2010,
|
|
2220,
|
|
1222,
|
|
1120,
|
|
2201,
|
|
,
|
|
2120,
|
|
1120,
|
|
2102,
|
|
2,
|
|
2211,
|
|
2,
|
|
2112,
|
|
,
|
|
2121,
|
|
2,
|
|
2211,
|
|
,
|
|
1122,
|
|
1,
|
|
0012,
|
|
2002,
|
|
0211,
|
|
2,
|
|
2211,
|
|
2012,
|
|
0211,
|
|
2,
|
|
1112,
|
|
,
|
|
2122,
|
|
2010,
|
|
2220,
|
|
1010,
|
|
2,
|
|
4120,
|
|
2121,
|
|
0212,
|
|
1211,
|
|
0222,
|
|
2111,
|
|
0221,
|
|
2220,
|
|
2210,
|
|
2111,
|
|
2022,
|
|
2122,
|
|
2011,
|
|
1222,
|
|
0212,
|
|
1122,
|
|
2120,
|
|
2112,
|
|
0212,
|
|
2120,
|
|
1121,
|
|
2210,
|
|
2221,
|
|
1120,
|
|
2121,
|
|
2112,
|
|
0111,
|
|
2120,
|
|
1122,
|
|
1021,
|
|
0212,
|
|
3040,
|
|
1121,
|
|
2112,
|
|
0222,
|
|
2111,
|
|
2021,
|
|
2122,
|
|
1022,
|
|
1122,
|
|
2121,
|
|
2112,
|
|
0211,
|
|
2111,
|
|
2021,
|
|
2222,
|
|
0221,
|
|
1222,
|
|
2121,
|
|
2112,
|
|
0222,
|
|
2111,
|
|
2021,
|
|
2122,
|
|
0222,
|
|
1122,
|
|
2121,
|
|
2112,
|
|
0211,
|
|
2111,
|
|
2021,
|
|
1221,
|
|
2112,
|
|
1222,
|
|
2,
|
|
,
|
|
,
|
|
,
|
|
,
|
|
,
|
|
,
|
|
,
|
|
#GOGOSTART
|
|
3011,
|
|
1122,
|
|
1011,
|
|
2211,
|
|
2011,
|
|
1122,
|
|
1111,
|
|
2211,
|
|
2022,
|
|
1122,
|
|
1111,
|
|
2211,
|
|
#GOGOEND
|
|
2010,
|
|
2022,
|
|
0111,
|
|
2120,
|
|
#SCROLL 1
|
|
6,
|
|
,
|
|
8,
|
|
#END
|
|
|
|
COURSE:Normal
|
|
LEVEL:6
|
|
SCOREINIT:
|
|
SCOREDIFF:
|
|
|
|
#START
|
|
#SCROLL 0.35
|
|
3010,
|
|
2220,
|
|
2121,
|
|
0220,
|
|
2112,
|
|
0220,
|
|
1122,
|
|
0120,
|
|
1020,
|
|
1122,
|
|
1011,
|
|
0220,
|
|
1111,
|
|
0020,
|
|
2211,
|
|
0220,
|
|
1210,
|
|
1110,
|
|
1212,
|
|
2210,
|
|
1221,
|
|
0210,
|
|
1212,
|
|
0120,
|
|
1111,
|
|
1111,
|
|
1111,
|
|
1111,
|
|
5,
|
|
,
|
|
8,
|
|
,
|
|
,
|
|
,
|
|
,
|
|
,
|
|
3010,
|
|
1011,
|
|
1010,
|
|
1111,
|
|
1010,
|
|
1011,
|
|
1010,
|
|
1111,
|
|
1010,
|
|
1011,
|
|
1010,
|
|
2222,
|
|
1010,
|
|
1110,
|
|
1111,
|
|
1011,
|
|
1010,
|
|
1110,
|
|
1111,
|
|
1011,
|
|
1010,
|
|
1110,
|
|
1111,
|
|
1011,
|
|
1010,
|
|
1111,
|
|
5,
|
|
,
|
|
#GOGOSTART
|
|
8011,
|
|
1022,
|
|
1011,
|
|
1122,
|
|
2011,
|
|
1022,
|
|
1011,
|
|
2222,
|
|
2011,
|
|
1022,
|
|
1011,
|
|
1122,
|
|
2011,
|
|
1022,
|
|
1011,
|
|
2222,
|
|
2011,
|
|
1022,
|
|
1011,
|
|
1122,
|
|
2011,
|
|
1022,
|
|
1011,
|
|
2222,
|
|
2011,
|
|
1022,
|
|
1011,
|
|
1122,
|
|
2011,
|
|
1022,
|
|
1011,
|
|
2222,
|
|
#GOGOEND
|
|
1021,
|
|
0210,
|
|
2012,
|
|
0120,
|
|
1021,
|
|
0210,
|
|
0220,
|
|
2010,
|
|
1021,
|
|
0210,
|
|
2012,
|
|
0120,
|
|
1021,
|
|
0210,
|
|
0210,
|
|
2120,
|
|
1010,
|
|
1010,
|
|
1010,
|
|
1010,
|
|
1010,
|
|
1010,
|
|
1010,
|
|
1010,
|
|
1020,
|
|
1120,
|
|
2010,
|
|
2210,
|
|
2011,
|
|
2010,
|
|
5,
|
|
8,
|
|
2010,
|
|
2011,
|
|
0020,
|
|
2011,
|
|
2010,
|
|
2011,
|
|
0010,
|
|
2011,
|
|
1020,
|
|
1022,
|
|
0010,
|
|
1022,
|
|
1020,
|
|
1022,
|
|
0010,
|
|
2010,
|
|
2010,
|
|
1021,
|
|
0010,
|
|
2010,
|
|
2020,
|
|
1110,
|
|
2010,
|
|
1020,
|
|
1010,
|
|
2010,
|
|
1020,
|
|
2011,
|
|
2010,
|
|
2010,
|
|
2220,
|
|
1022,
|
|
2010,
|
|
2201,
|
|
,
|
|
2022,
|
|
1020,
|
|
1102,
|
|
,
|
|
2011,
|
|
2,
|
|
2011,
|
|
,
|
|
2011,
|
|
2,
|
|
2011,
|
|
,
|
|
1022,
|
|
1,
|
|
0010,
|
|
2002,
|
|
0010,
|
|
2,
|
|
2011,
|
|
2002,
|
|
0010,
|
|
2,
|
|
1022,
|
|
,
|
|
2011,
|
|
5,
|
|
,
|
|
,
|
|
8,
|
|
4020,
|
|
1201,
|
|
0202,
|
|
0110,
|
|
0220,
|
|
2011,
|
|
0220,
|
|
1110,
|
|
2020,
|
|
1011,
|
|
0220,
|
|
2010,
|
|
2011,
|
|
1022,
|
|
0110,
|
|
2022,
|
|
2010,
|
|
2011,
|
|
0202,
|
|
2010,
|
|
1020,
|
|
1011,
|
|
0220,
|
|
1020,
|
|
2020,
|
|
1022,
|
|
0110,
|
|
2010,
|
|
1020,
|
|
1022,
|
|
0220,
|
|
3040,
|
|
1022,
|
|
2011,
|
|
0222,
|
|
2011,
|
|
2020,
|
|
1022,
|
|
0022,
|
|
0110,
|
|
2020,
|
|
1021,
|
|
0110,
|
|
2220,
|
|
2011,
|
|
0222,
|
|
0220,
|
|
1120,
|
|
2020,
|
|
1122,
|
|
0220,
|
|
1120,
|
|
2020,
|
|
1122,
|
|
0220,
|
|
1120,
|
|
2010,
|
|
2222,
|
|
0201,
|
|
2010,
|
|
2220,
|
|
1020,
|
|
2011,
|
|
1022,
|
|
2,
|
|
,
|
|
,
|
|
,
|
|
,
|
|
,
|
|
,
|
|
,
|
|
#GOGOSTART
|
|
3010,
|
|
1022,
|
|
1010,
|
|
2011,
|
|
2010,
|
|
1022,
|
|
1011,
|
|
2010,
|
|
2022,
|
|
2010,
|
|
1011,
|
|
2010,
|
|
#GOGOEND
|
|
2010,
|
|
2022,
|
|
0110,
|
|
2020,
|
|
#SCROLL 0.8
|
|
6,
|
|
,
|
|
8,
|
|
#END
|
|
|
|
COURSE:Easy
|
|
LEVEL:4
|
|
SCOREINIT:
|
|
SCOREDIFF:
|
|
|
|
#START
|
|
#SCROLL 0.3
|
|
3010,
|
|
2020,
|
|
1020,
|
|
0020,
|
|
2010,
|
|
0020,
|
|
1020,
|
|
0020,
|
|
1020,
|
|
1020,
|
|
1010,
|
|
0020,
|
|
1010,
|
|
0020,
|
|
2010,
|
|
0020,
|
|
1010,
|
|
1010,
|
|
1010,
|
|
2010,
|
|
1020,
|
|
0010,
|
|
1010,
|
|
0020,
|
|
1010,
|
|
1010,
|
|
1010,
|
|
1010,
|
|
5,
|
|
,
|
|
8,
|
|
,
|
|
,
|
|
,
|
|
,
|
|
,
|
|
3010,
|
|
1010,
|
|
1010,
|
|
1011,
|
|
1,
|
|
1010,
|
|
1010,
|
|
1011,
|
|
1,
|
|
1010,
|
|
1110,
|
|
2,
|
|
1010,
|
|
1010,
|
|
1011,
|
|
1,
|
|
1010,
|
|
1010,
|
|
1011,
|
|
1,
|
|
1010,
|
|
1010,
|
|
1011,
|
|
1,
|
|
1010,
|
|
1010,
|
|
5,
|
|
,
|
|
#GOGOSTART
|
|
8,
|
|
1020,
|
|
1010,
|
|
1020,
|
|
2,
|
|
1020,
|
|
1010,
|
|
2020,
|
|
2,
|
|
1020,
|
|
1010,
|
|
1020,
|
|
2,
|
|
1020,
|
|
1010,
|
|
2020,
|
|
2,
|
|
1020,
|
|
1010,
|
|
1020,
|
|
2,
|
|
1020,
|
|
1010,
|
|
2020,
|
|
2,
|
|
1020,
|
|
1010,
|
|
1020,
|
|
2,
|
|
1020,
|
|
1010,
|
|
2020,
|
|
#GOGOEND
|
|
1001,
|
|
0010,
|
|
2002,
|
|
0020,
|
|
1001,
|
|
0010,
|
|
0020,
|
|
2020,
|
|
1001,
|
|
0010,
|
|
2002,
|
|
0020,
|
|
1001,
|
|
0010,
|
|
0010,
|
|
2220,
|
|
1,
|
|
1010,
|
|
1,
|
|
1010,
|
|
1,
|
|
1010,
|
|
1,
|
|
1010,
|
|
1,
|
|
1020,
|
|
2010,
|
|
2010,
|
|
2010,
|
|
2010,
|
|
5,
|
|
8,
|
|
2010,
|
|
2010,
|
|
0020,
|
|
2,
|
|
2010,
|
|
2010,
|
|
0010,
|
|
2,
|
|
1020,
|
|
1020,
|
|
0010,
|
|
1,
|
|
1020,
|
|
1020,
|
|
0010,
|
|
2010,
|
|
2,
|
|
1020,
|
|
0010,
|
|
2010,
|
|
2,
|
|
1010,
|
|
0010,
|
|
1020,
|
|
1,
|
|
2010,
|
|
0020,
|
|
2010,
|
|
2,
|
|
0010,
|
|
2020,
|
|
1020,
|
|
2010,
|
|
,
|
|
,
|
|
2020,
|
|
1020,
|
|
,
|
|
,
|
|
2010,
|
|
2,
|
|
2010,
|
|
,
|
|
2010,
|
|
2,
|
|
2010,
|
|
,
|
|
1020,
|
|
1,
|
|
0010,
|
|
2002,
|
|
0020,
|
|
1,
|
|
2010,
|
|
2002,
|
|
0020,
|
|
1,
|
|
1020,
|
|
,
|
|
2010,
|
|
5,
|
|
,
|
|
,
|
|
8,
|
|
4020,
|
|
1,
|
|
2,
|
|
1110,
|
|
0020,
|
|
1001,
|
|
0010,
|
|
2010,
|
|
2,
|
|
1001,
|
|
0010,
|
|
2010,
|
|
2020,
|
|
1001,
|
|
0010,
|
|
2020,
|
|
2,
|
|
2002,
|
|
0020,
|
|
1,
|
|
1020,
|
|
1010,
|
|
0020,
|
|
1020,
|
|
2,
|
|
1001,
|
|
0010,
|
|
2010,
|
|
2,
|
|
2002,
|
|
0020,
|
|
3,
|
|
1022,
|
|
2010,
|
|
0020,
|
|
1010,
|
|
2,
|
|
1110,
|
|
0020,
|
|
0010,
|
|
2220,
|
|
1,
|
|
1010,
|
|
2220,
|
|
1010,
|
|
0020,
|
|
2020,
|
|
1022,
|
|
2010,
|
|
,
|
|
1020,
|
|
1020,
|
|
2020,
|
|
1,
|
|
0020,
|
|
1022,
|
|
2,
|
|
2020,
|
|
2010,
|
|
2010,
|
|
2220,
|
|
1,
|
|
2020,
|
|
1110,
|
|
2,
|
|
,
|
|
,
|
|
,
|
|
,
|
|
,
|
|
,
|
|
,
|
|
#GOGOSTART
|
|
4011,
|
|
1020,
|
|
1110,
|
|
2010,
|
|
2011,
|
|
1020,
|
|
1110,
|
|
2020,
|
|
1020,
|
|
2011,
|
|
1020,
|
|
1110,
|
|
#GOGOEND
|
|
2,
|
|
2,
|
|
1010,
|
|
2020,
|
|
#SCROLL 0.5
|
|
6,
|
|
,
|
|
8,
|
|
#END
|