generated from DragonRatTiger/Custom-Charts
412 lines
4.6 KiB
Plaintext
412 lines
4.6 KiB
Plaintext
TITLE:Mischievous Function
|
|
TITLEJA:おちゃめ機能
|
|
SUBTITLE:--Gojimaji-P (Lamaze-P) ft. Teto Kasane
|
|
SUBTITLEJA:ゴジマジP (ラマーズP) ft. 重音テト
|
|
BPM:150
|
|
WAVE:Mischievous Function.ogg
|
|
PREIMAGE:Mischievous Function.png
|
|
OFFSET:-0.032
|
|
DEMOSTART:60.231
|
|
MAKER:Colin & ugyuu
|
|
|
|
COURSE:Easy
|
|
LEVEL:2
|
|
BALLOON:3,3
|
|
SCOREINIT:
|
|
SCOREDIFF:
|
|
NOTESDESIGNER0:Colin
|
|
|
|
#START
|
|
1010,
|
|
1,
|
|
1010,
|
|
3003003000000000,
|
|
#GOGOSTART
|
|
2020,
|
|
2,
|
|
1010,
|
|
1,
|
|
2020,
|
|
2,
|
|
1010,
|
|
1,
|
|
#GOGOEND
|
|
1,
|
|
,
|
|
2020,
|
|
2220,
|
|
2020,
|
|
2220,
|
|
1010,
|
|
1110,
|
|
1010,
|
|
7008,
|
|
2020,
|
|
2220,
|
|
2020,
|
|
2220,
|
|
1010,
|
|
1110,
|
|
1010,
|
|
7008,
|
|
1010,
|
|
1,
|
|
2020,
|
|
2,
|
|
5008,
|
|
5008,
|
|
5008,
|
|
3003003000000000,
|
|
#GOGOSTART
|
|
1010,
|
|
1110,
|
|
2020,
|
|
2220,
|
|
1010,
|
|
1110,
|
|
2020,
|
|
2,
|
|
#GOGOEND
|
|
2,
|
|
,
|
|
,
|
|
3003003000000000,
|
|
6,
|
|
8,
|
|
5080,
|
|
1010,
|
|
6,
|
|
8,
|
|
5,
|
|
8,
|
|
#GOGOSTART
|
|
1010,
|
|
1110,
|
|
2020,
|
|
2220,
|
|
1010,
|
|
1110,
|
|
2020,
|
|
2,
|
|
2020,
|
|
20202025,
|
|
0080,
|
|
1010,
|
|
1100,
|
|
1110,
|
|
2020,
|
|
20020020,
|
|
#GOGOEND
|
|
0,
|
|
00000440,
|
|
#END
|
|
|
|
COURSE:Normal
|
|
LEVEL:4
|
|
BALLOON:6,6
|
|
SCOREINIT:
|
|
SCOREDIFF:
|
|
NOTESDESIGNER1:Colin
|
|
|
|
#START
|
|
1010,
|
|
10111000,
|
|
1011,
|
|
3003003000000000,
|
|
#GOGOSTART
|
|
20002022,
|
|
2220,
|
|
1011,
|
|
10111000,
|
|
20002022,
|
|
2220,
|
|
10001011,
|
|
1110,
|
|
#GOGOEND
|
|
1,
|
|
,
|
|
2020,
|
|
20222000,
|
|
2020,
|
|
20222000,
|
|
1010,
|
|
10111000,
|
|
1010,
|
|
7008,
|
|
2020,
|
|
20222000,
|
|
2020,
|
|
20222000,
|
|
1010,
|
|
10111000,
|
|
1010,
|
|
7008,
|
|
1011,
|
|
1010,
|
|
2022,
|
|
2020,
|
|
5008,
|
|
5008,
|
|
5008,
|
|
3003003000000000,
|
|
#GOGOSTART
|
|
10001011,
|
|
1110,
|
|
20002022,
|
|
2220,
|
|
1110,
|
|
10111000,
|
|
20002022,
|
|
2020,
|
|
#GOGOEND
|
|
2,
|
|
,
|
|
,
|
|
3003003000000000,
|
|
6,
|
|
8111,
|
|
5080,
|
|
1010,
|
|
6,
|
|
8,
|
|
5,
|
|
8222,
|
|
#GOGOSTART
|
|
1110,
|
|
10111010,
|
|
2020,
|
|
20222020,
|
|
10001011,
|
|
1110,
|
|
20222020,
|
|
2020,
|
|
20002022,
|
|
20202225,
|
|
0081,
|
|
10111010,
|
|
1101,
|
|
10111010,
|
|
2020,
|
|
20220220,
|
|
#GOGOEND
|
|
0,
|
|
00000440,
|
|
#END
|
|
|
|
COURSE:Hard
|
|
LEVEL:6
|
|
BALLOON:6,2,14,10
|
|
SCOREINIT:
|
|
SCOREDIFF:
|
|
NOTESDESIGNER2:ugyuu
|
|
|
|
#START
|
|
1000100202202000,
|
|
1000100202202000,
|
|
1000100202202000,
|
|
3004004000201020,
|
|
#GOGOSTART
|
|
1010201100101010,
|
|
2000202200201020,
|
|
1000202200101010,
|
|
2001105080102000,
|
|
1010202200101010,
|
|
2000202200101010,
|
|
1000102200102010,
|
|
1001101010201010,
|
|
#GOGOEND
|
|
7000800100101000,
|
|
1000100100105080,
|
|
50815081,
|
|
11211030,
|
|
50815081,
|
|
21122020,
|
|
50825081,
|
|
12221010,
|
|
50815081,
|
|
1010201022202010,
|
|
50825081,
|
|
11211030,
|
|
50815081,
|
|
21222120,
|
|
50815082,
|
|
11222010,
|
|
50825082,
|
|
1010201020102012,
|
|
1010100020220020,
|
|
1010200010110022,
|
|
2010201020220011,
|
|
11212201,
|
|
2010201010110010,
|
|
1010202010110010,
|
|
2220201020202200,
|
|
3004004000201020,
|
|
#GOGOSTART
|
|
1010201100101010,
|
|
2010202200201020,
|
|
1010202200101010,
|
|
2001105080102000,
|
|
1010202200101000,
|
|
2000202200101000,
|
|
1000102200102010,
|
|
1001101010201000,
|
|
#GOGOEND
|
|
2010200201102220,
|
|
2010200201102220,
|
|
201020110110
|
|
#SCROLL 4
|
|
7080,
|
|
#SCROLL 2
|
|
3004004000
|
|
#SCROLL 1
|
|
102010,
|
|
3010201110220020,
|
|
100100101010101010100010,
|
|
1010201020220010,
|
|
1010201022201110,
|
|
2010201110220010,
|
|
21212121,
|
|
70000008,
|
|
1011001110201020,
|
|
#GOGOSTART
|
|
1010201100101010,
|
|
2010202200201020,
|
|
1010202200101010,
|
|
2001105080102000,
|
|
1010202200101010,
|
|
2010202200101010,
|
|
1010102200102010,
|
|
1001101010201010,
|
|
2000201110202220,
|
|
2211221
|
|
#SCROLL 3
|
|
7,
|
|
#SCROLL 1
|
|
00008111,
|
|
1020102011022011,
|
|
12508212,
|
|
11258215,
|
|
8010500080000021,
|
|
2020102012102012,
|
|
#GOGOEND
|
|
1010200201102220,
|
|
1010200200
|
|
#SCROLL 2
|
|
304000,
|
|
#END
|
|
|
|
COURSE:Oni
|
|
LEVEL:8
|
|
BALLOON:3,10
|
|
SCOREINIT:
|
|
SCOREDIFF:
|
|
NOTESDESIGNER3:Colin & ugyuu
|
|
|
|
#START
|
|
2020101202101010,
|
|
2020101202102010,
|
|
2020101202101010,
|
|
4003004000201020,
|
|
#GOGOSTART
|
|
3010202101202010,
|
|
2010211200201020,
|
|
2010221201201020,
|
|
2011102021102011,
|
|
1010202200212010,
|
|
2010202201202010,
|
|
1010202200202010,
|
|
1021101012105080,
|
|
#GOGOEND
|
|
1011201202102022,
|
|
1011202102104000,
|
|
3011201012120120,
|
|
1011201010210210,
|
|
1011201120120210,
|
|
2011201020120120,
|
|
1011202020120120,
|
|
1011201210210120,
|
|
1020112010210110,
|
|
2011201122121022,
|
|
4010201021101120,
|
|
1020201011103011,
|
|
2010102120102012,
|
|
2020102021012101,
|
|
2010211050802010,
|
|
1110202220102111,
|
|
2010212050802010,
|
|
1021101012102022,
|
|
2020222012101011,
|
|
0220202210112021,
|
|
2020201020201122,
|
|
1022112021201112,
|
|
2120201122120121,
|
|
2010202212102011,
|
|
2220201122112200,
|
|
#SCROLL 2
|
|
40
|
|
#SCROLL 1
|
|
1
|
|
#SCROLL 2
|
|
40
|
|
#SCROLL 1
|
|
1
|
|
#SCROLL 2
|
|
4000
|
|
#SCROLL 1
|
|
201020,
|
|
#GOGOSTART
|
|
1020202101201020,
|
|
2010201201201020,
|
|
2020202201101010,
|
|
2011201212102022,
|
|
1020202202101010,
|
|
2020202101202020,
|
|
1021202201202020,
|
|
1011201012012022,
|
|
#GOGOEND
|
|
1120201101202220,
|
|
1120201202102220,
|
|
112020120120
|
|
#SCROLL 4
|
|
7080,
|
|
#SCROLL 2
|
|
4003004000
|
|
#SCROLL 1
|
|
102020,
|
|
3011201211201020,
|
|
122122122122,
|
|
1011201211202022,
|
|
1011201212012122,
|
|
2010201120120110,
|
|
2110211021102110,
|
|
1011201022120211,
|
|
1011201021211020,
|
|
#GOGOSTART
|
|
3020212101201020,
|
|
2010211201201020,
|
|
2020121201101010,
|
|
2011102012102022,
|
|
1020202202101010,
|
|
2020202101202020,
|
|
1021202201202020,
|
|
1011201212012022,
|
|
5080201220202220,
|
|
20202120102010
|
|
#SCROLL 3
|
|
70,
|
|
#SCROLL 1
|
|
0000000080101110,
|
|
2020102012112022,
|
|
1120201110201021,
|
|
2011202011221010,
|
|
1021201211202012,
|
|
1011202012212022,
|
|
#GOGOEND
|
|
1011201222102022,
|
|
1011201222
|
|
#SCROLL 2
|
|
30
|
|
#BARLINEOFF
|
|
4000,
|
|
#END
|