Files
ugyuuCustoms/Pop/Less Than Three/LessThanThree.tja
T

609 lines
5.7 KiB
Plaintext

TITLE:Less Than Three (Richardo Autobahn Remix)
SUBTITLE:--Disko Warp feat. Becky, video by Radio Gosha
BPM:160
WAVE:lessthan3.ogg
OFFSET:-0.375
DEMOSTART:46.875
PREIMAGE:ltt.png
LYRICS:lessthanthree.vtt
MAKER:ugyuu
COURSE:Oni
LEVEL:8
BALLOON:12,14,12,14,14,14,28,28,12,12
SCOREINIT:
SCOREDIFF:
#START
#BARLINEOFF
0,
,
,
,
,
#BARLINEON
2222222222222222,
7008,
4000222020101010,
0011201022101010,
0011201022101010,
0011200010004000,
4000222020101010,
0011201022101010,
2222222222222220,
4444,
#SCROLL 0.8
1011101020111020,
0010002010111021,
2011102010111010,
0020002010111011,
2011102010100020,
0010002010112010,
2010201120100010,
2222222222225080,
#SCROLL 1
4010111020101110,
2010102010
#SCROLL 1.5
4040
#SCROLL 1
21,
1010201020111011,
2010002010
#SCROLL 1.5
3040
#SCROLL 1
21,
1000100011201011,
2020001010
#SCROLL 1.5
1210
#SCROLL 1
20,
2220111022201110,
70000008,
#GOGOSTART
#SCROLL 1.15
2210200011202000,
2011201022102000,
2010201120222000,
2211221120
#SCROLL 1.6
304000,
#SCROLL 1.15
2210200010202000,
2011101022102000,
2010201120222000,
4030403040
#SCROLL 1.6
121000,
#SCROLL 1.15
7008,
#GOGOEND
#SCROLL 1
4000222020101010,
0011201022101010,
0011201022101010,
0011200010121110,
2000222020101010,
0011201022101010,
70000008,
4444,
1011101120101020,
1020111010211021,
1011101010111022,
1020102010211021,
2021102010200010,
0020005000801011,
21212101,
#BARLINEOFF
0010100010221110,
#BARLINEON
4010111020101110,
2010102010
#SCROLL 1.5
4040
#SCROLL 1
21,
1010201020111011,
2010002010
#SCROLL 1.5
3040
#SCROLL 1
21,
1000100011201011,
2020001010
#SCROLL 1.5
1210
#SCROLL 1
20,
2220111022201110,
70000008,
#GOGOSTART
#SCROLL 1.15
2210200011202000,
2011201022102000,
2010201120222000,
2211221120
#SCROLL 1.6
304000,
#SCROLL 1.15
2210200010202000,
2011101022102000,
2010201120222000,
4030403040
#SCROLL 1.6
121000,
#SCROLL 1.15
2210200011202000,
2011201022102000,
2010201120222000,
2211221120
#SCROLL 1.6
304000,
#SCROLL 1.15
2210200010202000,
2011101022102000,
2010201120222000,
70000008,
#GOGOEND
#SCROLL 1
1010201022101000,
1010201022201000,
2010201022101000,
1120201010121120,
4010201022101000,
1010201022201000,
7,
0008,
2210200010202020,
1120112010202020,
1020102022202000,
2210221021212000,
1120112010202000,
2011101022222210,
2222222222222222,
7,
0008,
#GOGOSTART
#SCROLL 1.15
2210200011202000,
2011201022102000,
2010201120222000,
2211221120
#SCROLL 1.6
304000,
#SCROLL 1.15
2210200010202000,
2011101022102000,
2010201120222000,
7008,
#SCROLL 1.2
2210201011202000,
2011201022102000,
2010201120222000,
2211221120
#SCROLL 1.65
304000,
#SCROLL 1.2
2210201010202000,
2011101022102000,
2010201120222000,
4030403040
#SCROLL 1.6
121000,
#GOGOEND
#BARLINEOFF
#SCROLL 1.2
7008,
#END
COURSE:Hard
LEVEL:6
BALLOON:10,10,10,14,10,20,20,10
SCOREINIT:
SCOREDIFF:
#START
#BARLINEOFF
0,
,
,
,
,
#BARLINEON
5008,
7008,
20222201,
01202101,
01202101,
01201508,
20222201,
01202101,
5008,
4444,
#SCROLL 0.8
10102102,
01020002,
11020101,
02020001,
21020102,
01020020,
20202101,
7008,
#SCROLL 1
1121,
21020120,
1121,
22020120,
20101200,
22010210,
2121,
22015080,
#GOGOSTART
#SCROLL 1.15
21201220,
21212220,
21211220,
21212000,
21201120,
21212220,
22211220,
21212000,
7008,
#GOGOEND
#SCROLL 1
20222201,
01202101,
01202101,
01201000,
20222201,
01202101,
5008,
4444,
10102102,
02010000,
11020102,
01020000,
21020102,
01050810,
20202101,
#BARLINEOFF
01101010,
#BARLINEON
1121,
21020120,
1121,
22020120,
20101200,
22010210,
2121,
70000008,
#GOGOSTART
#SCROLL 1.15
21201220,
21212220,
21211220,
21212000,
21201120,
21212220,
22211220,
21212000,
21201220,
21212220,
21211220,
21212000,
21201120,
21212220,
22211220,
70000008,
#GOGOEND
#SCROLL 1
40202110,
10202210,
10202110,
12201040,
40202110,
10202210,
7,
0008,
21201220,
12121220,
12021120,
21212120,
11101220,
21105080,
10112210,
7,
0008,
#GOGOSTART
#SCROLL 1.15
21201220,
21212220,
21211220,
21212000,
21201120,
21212220,
22211220,
21212000,
21201221,
20212220,
21211220,
21212040,
21201121,
20212220,
22211220,
21212040,
#GOGOEND
#BARLINEOFF
7008,
#END
COURSE:Normal
LEVEL:5
BALLOON:9,18
SCOREINIT:
SCOREDIFF:
#START
#BARLINEOFF
0,
,
,
,
,
#BARLINEON
5008,
7008,
10101001,
00202001,
00101001,
0220,
10101001,
00202001,
5,
0008,
10001001,
01010000,
10010001,
01010000,
10010001,
01010010,
10101101,
5008,
1111,
22020000,
1210,
22020000,
10101100,
22010000,
5,
0008,
#GOGOSTART
22202020,
2020,
2222,
11101000,
22201020,
2020,
2222,
11101000,
5008,
#GOGOEND
10101001,
00202001,
00101001,
0220,
10101001,
00202001,
00101001,
5008,
10001001,
01010000,
10010001,
01010000,
10010001,
01010010,
10101102,
#BARLINEOFF
0,
#BARLINEON
1111,
22020000,
1210,
22020000,
10101100,
22010000,
5,
0008,
#GOGOSTART
22202020,
2020,
2222,
11101000,
22201020,
2020,
22201020,
5008,
22202020,
2020,
2222,
11101000,
22201020,
2020,
22201020,
5008,
#GOGOEND
0221,
0222,
0221,
11101000,
0221,
0222,
0221,
11101000,
22202000,
2220,
2222,
11101000,
10101210,
2220,
7,
0008,
5008,
#GOGOSTART
22202020,
2020,
2222,
11101000,
22201020,
2020,
22201020,
5008,
22202020,
2020,
2222,
11101000,
22201020,
2020,
22201020,
5,
#GOGOEND
#BARLINEOFF
8,
#END
COURSE:Easy
LEVEL:2
BALLOON:6,14,14
SCOREINIT:
SCOREDIFF:
#START
#BARLINEOFF
0,
,
,
,
,
#BARLINEON
5008,
7008,
1,
1010,
1,
1011,
1,
1010,
5,
0008,
1,
,
1,
,
1,
1,
1010,
5008,
1010,
10010000,
1010,
10010000,
1010,
10010000,
5,
0008,
#GOGOSTART
2020,
2,
2020,
2220,
2020,
2,
2020,
2220,
5008,
#GOGOEND
1,
1010,
1,
1011,
1,
1010,
1010,
5008,
1010,
1,
1010,
1,
1010,
1,
1110,
#BARLINEOFF
0,
#BARLINEON
1010,
10010000,
1010,
10010000,
1010,
10010000,
5,
0008,
#GOGOSTART
2020,
2,
2020,
2220,
2020,
2,
2220,
5008,
2020,
2,
2020,
2220,
2020,
2,
2220,
5008,
#GOGOEND
0110,
0110,
0110,
5008,
0110,
0110,
7,
0008,
2020,
5080,
2020,
2,
2020,
2020,
7,
0008,
5008,
#GOGOSTART
2020,
2,
2020,
2220,
2020,
2,
2220,
5008,
2020,
2,
2020,
2220,
2020,
2,
2220,
5,
#GOGOEND
#BARLINEOFF
8,
#END