Files
ugyuuCustoms/VOCALOID/Brain Implosion Energy/BrainImplosionEnergy.tja
T

708 lines
7.9 KiB
Plaintext

TITLE:Brain Implosion Energy
SUBTITLE:--Flanger Moose feat. Kasane Teto
SUBTITLEJA:--Flanger Moose & 驥埼浹繝・ヨ
BPM:113
WAVE:BrainImplosionEnergy.ogg
PREIMAGE:biecover.png
OFFSET:-0.046
DEMOSTART:2.216
MAKER:ugyuu vs DiamondN1nja
LYRICS:BrainImplosionEnergy.vtt
COURSE:Oni
LEVEL:8
BALLOON:4
SCOREINIT:
SCOREDIFF:
NOTESDESIGNER3:Brain Implosion Energy Drink Corp.
#START
#SCROLL 0.964602
10
#BPMCHANGE 109
#SCROLL 1
102112,
#GOGOSTART
22111221,
12111221,
12221122,
100201100200
#GOGOEND
300000000000,
#GOGOSTART
200200100100200100200101,
200100200100200201200101,
200101200101200100200100,
100201100200
#GOGOEND
300000000200,
22122211,
#MEASURE 2/4
1212,
#MEASURE 4/4
#BPMCHANGE 250
#SCROLL 1.744
60000008,
#MEASURE 1/8
#BARLINEOFF
#BPMCHANGE 106
#SCROLL 1.0283
2,
#MEASURE 4/4
#BARLINEON
#BPMCHANGE 109
#SCROLL 1
2020201020212010,
21225080,
#GOGOSTART
400200100100200100200201,
200100200100100200200101,
100201100101200200100200,
200101100200
#GOGOEND
400100100200,
200020200000200000200000200020000200002000200000,
200002202020100100101100,
000000000000000020000000000000000000000020000000200020002000000020000200000200000000200020002000,
000020000000000000000000100000000000100000000000100000000000100000000000100000001000100000000100,
200101000000200200000100200000100200000000000200,
211122212022,
200000000000002000002000000010000000200000001000000020000000200000000000000100000000000000000000,
100000200000100010200000200010100001000000200000,
#SCROLL 1.1
100000000
#SCROLL 1.12
200000000000
#SCROLL 1.14
100000000
#SCROLL 1.15
100
#SCROLL 1.16
200000000000
#SCROLL 1.18
100000000
#SCROLL 1.19
100
#SCROLL 1.2
200000000000
#SCROLL 1.22
400000000000
#SCROLL 1.24
40000000000
#SCROLL 1.26
3000,
000000000
#SCROLL 1.28
400000000000
#SCROLL 1.3
300000000
#SCROLL 1.31
300
#SCROLL 1.32
400000000000
#SCROLL 1.34
300000000
#SCROLL 1.35
300
#SCROLL 1.36
4000000
#SCROLL 1.3713
30
#SCROLL 1.3767
300
#SCROLL 1.38
400000000000
#SCROLL 1.4
40000000000
#SCROLL 2
3000,
0000
#SCROLL 2.02
400000
#SCROLL 2.04
3000
#SCROLL 2.05
30
#SCROLL 2.06
400000
#SCROLL 2.08
3000
#SCROLL 2.09
30
#SCROLL 2.1
40033400003400004000,
#BPMCHANGE 83.7
#SCROLL 8
5,
#MEASURE 3/4
#BARLINEOFF
#BPMCHANGE 111
#SCROLL 0.981982
8
#BPMCHANGE 142
#SCROLL 0.767605
0
#BPMCHANGE 105
#SCROLL 1.03809
0,
#MEASURE 4/4
#BARLINEON
#BPMCHANGE 109
#SCROLL 1
102202102000101200100200,
200010100010200020000000200000200000100200100000,
200010100000200000100100200010200000200100100000,
100000200000200200000100200000100000100020100000,
10020110020040000000000
#SCROLL 6
6,
#MEASURE 2/4
#BARLINEOFF
00000008,
#MEASURE 4/4
#BARLINEON
#SCROLL 1
10102112,
11201212,
11211212,
20112112,
12123000,
1000100020001020100020001000200
#SCROLL 4
7,
000000008000
#SCROLL 1
100000200000
#SCROLL 4
500800
#SCROLL 1
200000100000200000,
112110
#SCROLL 4
5000000008,
#SCROLL 1
100201100201200100100200,
#GOGOSTART
200200100100200100200101,
200100200100200201200101,
100200101200200200100200,
100201100200
#GOGOEND
300000000000,
#GOGOSTART
22111221,
21211221,
32323122,
100201100200
#GOGOEND
400000000200,
100200200201100200100100,
#MEASURE 2/4
200201200100,
#MEASURE 4/4
#BPMCHANGE 250
#SCROLL 1.744
60000008,
#MEASURE 1/8
#BARLINEOFF
#BPMCHANGE 106
#SCROLL 1.0283
2,
#MEASURE 4/4
#BARLINEON
#BPMCHANGE 109
#SCROLL 1
22112122,
11224000,
#GOGOSTART
22111221,
12111221,
12221122,
100201100200
#GOGOEND
#BARLINEOFF
300000000000,
#END
COURSE:Hard
LEVEL:6
BALLOON:4
SCOREINIT:
SCOREDIFF:
#START
#SCROLL 0.964602
10
#BPMCHANGE 109
#SCROLL 1
101111,
#GOGOSTART
21101122,
21201220,
21212011,
6008
#GOGOEND
4000,
#GOGOSTART
21101121,
21201220,
21212121,
6008
#GOGOEND
4002,
20211210,
#MEASURE 2/4
2121,
#MEASURE 4/4
#BPMCHANGE 250
#SCROLL 1.744
60000008,
#MEASURE 1/8
#BARLINEOFF
#BPMCHANGE 106
#SCROLL 1.0283
0,
#MEASURE 4/4
#BARLINEON
#BPMCHANGE 109
#SCROLL 1
22102121,
10224000,
#GOGOSTART
21101122,
21201220,
21212011,
6008
#GOGOEND
4000,
3020102011201020,
1020112020102120,
3020101021102010,
2010202020102120,
2010110110120000,
21112111,
2001101020102000,
2020111020101020,
#SCROLL 1.1
20
#SCROLL 1.12
20
#SCROLL 1.14
1
#SCROLL 1.15
1
#SCROLL 1.16
10
#SCROLL 1.18
20
#SCROLL 1.2
10
#SCROLL 1.22
10
#SCROLL 1.24
20,
#SCROLL 1.26
2000
#SCROLL 1.28
2000
#SCROLL 1.3
10
#SCROLL 1.31
10
#SCROLL 1.32
1000
#SCROLL 1.34
2000
#SCROLL 1.36
1000
#SCROLL 1.38
1000
#SCROLL 1.4
200
#SCROLL 1.6
2,
000
#SCROLL 1.62
2000
#SCROLL 1.63
10
#SCROLL 1.64
10
#SCROLL 1.65
1000
#SCROLL 1.67
2000
#SCROLL 1.69
1000
#SCROLL 1.71
1000
#SCROLL 1.73
20000,
#BPMCHANGE 83.7
#SCROLL 8
5,
#MEASURE 3/4
#BARLINEOFF
#BPMCHANGE 111
#SCROLL 0.981982
8
#BPMCHANGE 142
#SCROLL 0.767605
0
#BPMCHANGE 105
#SCROLL 1.03809
0,
#MEASURE 4/4
#BARLINEON
#BPMCHANGE 109
#SCROLL 1
100020200000100000000000100000200000100100200000,
1102200010202010,
2100201110201120,
1020102011102000,
10020010020070000080000
#SCROLL 5
6,
#MEASURE 2/4
#BARLINEOFF
00000008,
#MEASURE 4/4
#BARLINEON
#SCROLL 1
10101111,
12121210,
12121210,
12121212,
12124000,
32121210,
12121210,
12121212,
12124111,
#GOGOSTART
21101122,
21201220,
21212011,
6008
#GOGOEND
4000,
#GOGOSTART
21101121,
21201220,
21212121,
6008
#GOGOEND
4002,
20211210,
#MEASURE 2/4
2121,
#MEASURE 4/4
#BPMCHANGE 250
#SCROLL 1.744
60000008,
#MEASURE 1/8
#BARLINEOFF
#BPMCHANGE 106
#SCROLL 1.0283
0,
#MEASURE 4/4
#BARLINEON
#BPMCHANGE 109
#SCROLL 1
22102121,
10224000,
#GOGOSTART
21101122,
21201220,
21212011,
6008
#GOGOEND
#BARLINEOFF
4000,
#END
COURSE:Normal
LEVEL:5
SCOREINIT:
SCOREDIFF:
#START
#SCROLL 0.964602
1
#BPMCHANGE 109
#SCROLL 1
111,
#GOGOSTART
20202220,
20202220,
2222,
22
#GOGOEND
40,
#GOGOSTART
20202220,
20202220,
2222,
22
#GOGOEND
40,
10201110,
#MEASURE 2/4
12,
#MEASURE 4/4
#BPMCHANGE 250
#SCROLL 1.744
6,
#MEASURE 1/8
#BARLINEOFF
#BPMCHANGE 106
#SCROLL 1.0283
8,
#MEASURE 4/4
#BARLINEON
#BPMCHANGE 109
#SCROLL 1
10201110,
2240,
#GOGOSTART
40202220,
20202220,
2222,
22
#GOGOEND
40,
10201210,
1258,
10201210,
10585080,
1111,
1111,
1111,
11102020,
11102020,
10001000100000002000200020000001,
00010001000000020002000200020000,
#BPMCHANGE 83.7
#SCROLL 8
5,
#MEASURE 3/4
#BARLINEOFF
#BPMCHANGE 111
#SCROLL 0.981982
8
#BPMCHANGE 142
#SCROLL 0.767605
0
#BPMCHANGE 105
#SCROLL 1.03809
0,
#MEASURE 4/4
#BARLINEON
#BPMCHANGE 109
#SCROLL 1
11101010,
20201110,
1122,
11102020,
50000080000030000000000
#SCROLL 5
6,
#MEASURE 2/4
#BARLINEOFF
00000008,
#MEASURE 4/4
#BARLINEON
#SCROLL 1
1111,
10101110,
1110,
10101110,
1130,
10101110,
1110,
10101110,
1130,
#GOGOSTART
20202220,
20202220,
2222,
22
#GOGOEND
40,
#GOGOSTART
20202220,
20202220,
2222,
22
#GOGOEND
40,
10201110,
#MEASURE 2/4
12,
#MEASURE 4/4
#BPMCHANGE 250
#SCROLL 1.744
6,
#MEASURE 1/8
#BARLINEOFF
#BPMCHANGE 106
#SCROLL 1.0283
8,
#MEASURE 4/4
#BARLINEON
#BPMCHANGE 109
#SCROLL 1
10201110,
2240,
#GOGOSTART
40202220,
20202220,
2222,
22
#GOGOEND
#BARLINEOFF
40,
#END
COURSE:Easy
LEVEL:3
SCOREINIT:
SCOREDIFF:
#START
#SCROLL 0.964602
0
#BPMCHANGE 109
#SCROLL 1
000,
#GOGOSTART
1110,
1010,
1111,
11
#GOGOEND
30,
#GOGOSTART
1110,
1010,
1111,
11
#GOGOEND
30,
1110,
#MEASURE 2/4
10,
#MEASURE 4/4
#BPMCHANGE 250
#SCROLL 1.744
6,
#MEASURE 1/8
#BARLINEOFF
#BPMCHANGE 106
#SCROLL 1.0283
8,
#MEASURE 4/4
#BARLINEON
#BPMCHANGE 109
#SCROLL 1
1110,
1130,
#GOGOSTART
1110,
1010,
1111,
1010
#GOGOEND
5008,
02020202,
02004000,
02020202,
02004000,
10111000,
10111000,
1110,
1212,
1212,
10000000200000001000000020000001,
00010001000000020002000200000000,
#BPMCHANGE 83.7
#SCROLL 8
5,
#MEASURE 3/4
#BARLINEOFF
#BPMCHANGE 111
#SCROLL 0.981982
8
#BPMCHANGE 142
#SCROLL 0.767605
0
#BPMCHANGE 105
#SCROLL 1.03809
0,
#MEASURE 4/4
#BARLINEON
#BPMCHANGE 109
#SCROLL 1
5811,
5811,
5811,
5811,
50000080000030000000000
#SCROLL 5
6,
#MEASURE 2/4
#BARLINEOFF
00000008,
#MEASURE 4/4
#BARLINEON
#SCROLL 1
0,
1110,
1010,
1020,
1130,
1110,
1010,
1020,
1130,
#GOGOSTART
1110,
1010,
1111,
11
#GOGOEND
30,
#GOGOSTART
1110,
1010,
1111,
11
#GOGOEND
30,
1110,
#MEASURE 2/4
10,
#MEASURE 4/4
#BPMCHANGE 250
#SCROLL 1.744
6,
#MEASURE 1/8
#BARLINEOFF
#BPMCHANGE 106
#SCROLL 1.0283
8,
#MEASURE 4/4
#BARLINEON
#BPMCHANGE 109
#SCROLL 1
1110,
1130,
#GOGOSTART
1110,
1010,
1111,
11
#GOGOEND
#BARLINEOFF
30,
#END