generated from DragonRatTiger/Custom-Charts
678 lines
6.8 KiB
Plaintext
678 lines
6.8 KiB
Plaintext
TITLE:Donut End
|
|
TITLEJA:どーなってんの?
|
|
SUBTITLE:--Mitsu Akuma feat. Kasane Teto
|
|
SUBTITLEJA:--みつあくま + 重音テト
|
|
BPM:170
|
|
WAVE:DonutEnd.ogg
|
|
PREIMAGE:donut.png
|
|
OFFSET:-0.057
|
|
DEMOSTART:24.762
|
|
MAKER:ugyuu
|
|
|
|
COURSE:Oni
|
|
LEVEL:9
|
|
BALLOON:2,2,2,2
|
|
SCOREINIT:
|
|
SCOREDIFF:
|
|
|
|
#START
|
|
#BARLINEOFF
|
|
#JPOSSCROLL 0.3 250 1
|
|
00
|
|
#SCROLL -1
|
|
20
|
|
#SCROLL 1
|
|
#JPOSSCROLL 0.46 -250 1
|
|
20,
|
|
#BARLINEON
|
|
11222020,
|
|
20122020
|
|
#SCROLL 2
|
|
30003000,
|
|
#SCROLL 1
|
|
11222020,
|
|
2020212011201110,
|
|
11222121,
|
|
2112
|
|
#SCROLL 2
|
|
3030,
|
|
#SCROLL 1
|
|
21225821,
|
|
1020121011102120,
|
|
2110102110102110,
|
|
12202022,
|
|
2110102110102110,
|
|
21212120,
|
|
1020112011211020,
|
|
1021202012121011,
|
|
1020112011221120,
|
|
12121222,
|
|
#MEASURE 2/4
|
|
0
|
|
#SCROLL 1.07
|
|
1
|
|
#SCROLL 1.13
|
|
1
|
|
#SCROLL 1.19
|
|
1,
|
|
#MEASURE 4/4
|
|
#GOGOSTART
|
|
#SCROLL 1.25
|
|
100000000000100010001000200000000000100000000000200000000000200000100000100000000000100500000000,
|
|
800000101010200000100000200000200000100000100100,
|
|
100000101010200000100000200000200100100000200000,
|
|
1022202010202010,
|
|
#GOGOEND
|
|
#SCROLL 1
|
|
112112201212,
|
|
212202111100,
|
|
#GOGOSTART
|
|
#SCROLL 1.25
|
|
1121202020122020,
|
|
#SCROLL 2
|
|
300400000400300
|
|
#SCROLL 1.25
|
|
111100200,
|
|
70008000200010002000201010001500,
|
|
800000101010200000100000200000200000100000100100,
|
|
100000101010200000100000200000200100100000200000,
|
|
1021202010202010,
|
|
#GOGOEND
|
|
#SCROLL 1
|
|
112112211102,
|
|
211212101201,
|
|
#GOGOSTART
|
|
#SCROLL 1.25
|
|
1121201020111020,
|
|
#SCROLL 2
|
|
30
|
|
#SCROLL 1.25
|
|
2
|
|
#SCROLL 2
|
|
30
|
|
#SCROLL 1.25
|
|
1
|
|
#SCROLL 2
|
|
300
|
|
#SCROLL 1.25
|
|
200,
|
|
#GOGOEND
|
|
111020111020201010201010,
|
|
111020111020201010700800,
|
|
#SCROLL 0.5
|
|
112211112200,
|
|
102020201010201010500800,
|
|
#SCROLL 1
|
|
201110201110202010111020,
|
|
201110202220101010100000,
|
|
111
|
|
#SCROLL 2.5
|
|
400
|
|
#SCROLL 1
|
|
211
|
|
#SCROLL 2.5
|
|
400,
|
|
#SCROLL 1
|
|
101010202020111111111111,
|
|
5,
|
|
#MEASURE 2/4
|
|
80,
|
|
#MEASURE 4/4
|
|
1010102020112020,
|
|
1120
|
|
#SCROLL 2
|
|
3040,
|
|
#SCROLL 1
|
|
12781221,
|
|
#SCROLL 2.5
|
|
4000
|
|
#SCROLL 1
|
|
212011201110,
|
|
12212221,
|
|
1221
|
|
#SCROLL 2
|
|
3040,
|
|
#SCROLL 1
|
|
12215812,
|
|
1020111021102120,
|
|
2110102110102110,
|
|
12202022,
|
|
2110102110102110,
|
|
21212020,
|
|
1020112011211120,
|
|
1010112022101121,
|
|
1020112011221120,
|
|
12121222,
|
|
#MEASURE 2/4
|
|
1
|
|
#SCROLL 0.875
|
|
1
|
|
#SCROLL 0.75
|
|
1
|
|
#SCROLL 0.625
|
|
1,
|
|
#MEASURE 4/4
|
|
#SCROLL 0.5
|
|
11212115,
|
|
08212111,
|
|
11212115,
|
|
82211220,
|
|
112101582201,
|
|
100010202010500800200000,
|
|
1120102010211020,
|
|
100200100000200000100100200000101010200000000000,
|
|
#MEASURE 2/4
|
|
#BARLINEOFF
|
|
00,
|
|
#MEASURE 4/4
|
|
#SCROLL 2.5
|
|
3000
|
|
#SCROLL 1.25
|
|
1000
|
|
#GOGOSTART
|
|
200010002000201010001500,
|
|
#BARLINEON
|
|
800000101010200000100000200000200000100000100100,
|
|
100000101010200000100000200000200100100000200000,
|
|
1022202010202010,
|
|
#GOGOEND
|
|
#SCROLL 1
|
|
112211202211,
|
|
221111201201,
|
|
112101211202,
|
|
112112101201,
|
|
112101202201,
|
|
#SCROLL 2
|
|
10
|
|
#SCROLL 1
|
|
2
|
|
#SCROLL 2
|
|
20
|
|
#SCROLL 1
|
|
1
|
|
#SCROLL 2
|
|
10
|
|
#SCROLL 1
|
|
2
|
|
#SCROLL 2
|
|
20
|
|
#SCROLL 1
|
|
1,
|
|
#GOGOSTART
|
|
#SCROLL 1.25
|
|
1221201020111020,
|
|
#SCROLL 2
|
|
403303300
|
|
#SCROLL 1.25
|
|
200,
|
|
#GOGOEND
|
|
111020111020201010201010,
|
|
111020111020202010700800,
|
|
#SCROLL 0.5
|
|
112211112200,
|
|
102020201010202010500800,
|
|
#SCROLL 1
|
|
201110201110202010111020,
|
|
201110202220101010100000,
|
|
111
|
|
#SCROLL 2.5
|
|
400
|
|
#SCROLL 1
|
|
221
|
|
#SCROLL 2.5
|
|
400,
|
|
#SCROLL 1
|
|
101010202020111111111110,
|
|
#SCROLL 2.5
|
|
434
|
|
#SCROLL 4
|
|
3,
|
|
#BARLINEOFF
|
|
0,
|
|
#END
|
|
|
|
COURSE:Hard
|
|
LEVEL:7
|
|
BALLOON:24,4,6
|
|
SCOREINIT:
|
|
SCOREDIFF:
|
|
|
|
#START
|
|
#BARLINEOFF
|
|
#JPOSSCROLL 0.3 250 1
|
|
00
|
|
#SCROLL -1
|
|
20
|
|
#SCROLL 1
|
|
#JPOSSCROLL 0.46 -250 1
|
|
20,
|
|
#BARLINEON
|
|
12122020,
|
|
5812
|
|
#SCROLL 2
|
|
3030,
|
|
#SCROLL 1
|
|
12122020,
|
|
2020101011101000,
|
|
10222121,
|
|
0212
|
|
#SCROLL 2
|
|
3030,
|
|
#SCROLL 1
|
|
20225821,
|
|
0020111030003000,
|
|
21021021,
|
|
12102058,
|
|
21021021,
|
|
20221158,
|
|
11211211,
|
|
1020202010111000,
|
|
11211211,
|
|
12121222,
|
|
#MEASURE 2/4
|
|
0
|
|
#SCROLL 1.07
|
|
1
|
|
#SCROLL 1.13
|
|
1
|
|
#SCROLL 1.19
|
|
1,
|
|
#MEASURE 4/4
|
|
#GOGOSTART
|
|
#SCROLL 1.25
|
|
1010201020101110,
|
|
11212110,
|
|
1110201020101020,
|
|
01211220,
|
|
#GOGOEND
|
|
#SCROLL 1
|
|
101102200100,
|
|
202201100100,
|
|
#GOGOSTART
|
|
#SCROLL 1.25
|
|
11222011,
|
|
#SCROLL 2
|
|
34046830,
|
|
#SCROLL 1.25
|
|
1000201020101110,
|
|
11212110,
|
|
1110201020101020,
|
|
02211220,
|
|
#GOGOEND
|
|
#SCROLL 1
|
|
102101201102,
|
|
202201500800,
|
|
#GOGOSTART
|
|
#SCROLL 1.25
|
|
11212508,
|
|
#SCROLL 2
|
|
333
|
|
#SCROLL 1.25
|
|
2,
|
|
#GOGOEND
|
|
101102201201,
|
|
101102201100,
|
|
#SCROLL 0.5
|
|
112200112200,
|
|
101201201100,
|
|
#SCROLL 1
|
|
101202201102,
|
|
200222201100,
|
|
1
|
|
#SCROLL 2.5
|
|
4
|
|
#SCROLL 1
|
|
2
|
|
#SCROLL 2.5
|
|
4,
|
|
#SCROLL 1
|
|
111101700000,
|
|
,
|
|
#MEASURE 2/4
|
|
80,
|
|
#MEASURE 4/4
|
|
11122122,
|
|
1158
|
|
#SCROLL 2
|
|
3040,
|
|
#SCROLL 1
|
|
10581221,
|
|
#SCROLL 2.5
|
|
4
|
|
#SCROLL 1
|
|
124,
|
|
10212221,
|
|
0122
|
|
#SCROLL 2
|
|
3040,
|
|
#SCROLL 1
|
|
12215812,
|
|
02123040,
|
|
21021021,
|
|
12102058,
|
|
21021021,
|
|
21212112,
|
|
12012012,
|
|
1010102010002220,
|
|
11211211,
|
|
12121222,
|
|
#MEASURE 2/4
|
|
0
|
|
#SCROLL 0.875
|
|
1
|
|
#SCROLL 0.75
|
|
1
|
|
#SCROLL 0.625
|
|
1,
|
|
#MEASURE 4/4
|
|
#SCROLL 0.5
|
|
58202015,
|
|
08202010,
|
|
58202015,
|
|
82211220,
|
|
102101508201,
|
|
500080200010500800200000,
|
|
12121212,
|
|
25812270,
|
|
#MEASURE 2/4
|
|
#BARLINEOFF
|
|
80,
|
|
#MEASURE 4/4
|
|
#SCROLL 2.5
|
|
3000
|
|
#GOGOSTART
|
|
#SCROLL 1.25
|
|
201020101110,
|
|
#BARLINEON
|
|
11212210,
|
|
1110201020102020,
|
|
02211220,
|
|
#GOGOEND
|
|
#SCROLL 1
|
|
102202201101,
|
|
508100200200,
|
|
101101200101,
|
|
102002101200,
|
|
101101202201,
|
|
102201102201,
|
|
#GOGOSTART
|
|
#SCROLL 1.25
|
|
12212012,
|
|
#SCROLL 2
|
|
403303300
|
|
#SCROLL 1.25
|
|
200,
|
|
#GOGOEND
|
|
101102201201,
|
|
101102201100,
|
|
#SCROLL 0.5
|
|
112200112200,
|
|
101201201100,
|
|
#SCROLL 1
|
|
101200201102,
|
|
200222201100,
|
|
1
|
|
#SCROLL 2.5
|
|
4
|
|
#SCROLL 1
|
|
2
|
|
#SCROLL 2.5
|
|
4,
|
|
#SCROLL 1
|
|
101010100010700000000800,
|
|
#SCROLL 2.5
|
|
434
|
|
#SCROLL 4
|
|
3,
|
|
#BARLINEOFF
|
|
0,
|
|
#END
|
|
|
|
COURSE:Normal
|
|
LEVEL:6
|
|
SCOREINIT:
|
|
SCOREDIFF:
|
|
|
|
#START
|
|
#BARLINEOFF
|
|
0,
|
|
#BARLINEON
|
|
10111010,
|
|
10111030,
|
|
10222020,
|
|
10111010,
|
|
10102121,
|
|
01011030,
|
|
10111010,
|
|
1211,
|
|
21021021,
|
|
0122,
|
|
21021021,
|
|
5080,
|
|
11011011,
|
|
01101020,
|
|
11011011,
|
|
5,
|
|
#MEASURE 2/4
|
|
80,
|
|
#MEASURE 4/4
|
|
#GOGOSTART
|
|
10202011,
|
|
0221,
|
|
10202012,
|
|
02201220,
|
|
#GOGOEND
|
|
1010,
|
|
1010,
|
|
#GOGOSTART
|
|
1111,
|
|
33033030,
|
|
10202011,
|
|
0221,
|
|
10202012,
|
|
02201220,
|
|
#GOGOEND
|
|
1010,
|
|
1010,
|
|
#GOGOSTART
|
|
1111,
|
|
3330,
|
|
#GOGOEND
|
|
20202220,
|
|
20202250,
|
|
8,
|
|
,
|
|
20202220,
|
|
20222010,
|
|
1414,
|
|
2250,
|
|
,
|
|
#MEASURE 2/4
|
|
80,
|
|
#MEASURE 4/4
|
|
10101110,
|
|
10111030,
|
|
10581111,
|
|
2122,
|
|
10102211,
|
|
00111030,
|
|
1121,
|
|
1112,
|
|
21021021,
|
|
0122,
|
|
21021021,
|
|
5008,
|
|
12012012,
|
|
01111020,
|
|
11011011,
|
|
5,
|
|
#MEASURE 2/4
|
|
80,
|
|
#MEASURE 4/4
|
|
10202001,
|
|
0221,
|
|
10202011,
|
|
00101220,
|
|
1010,
|
|
1010,
|
|
1212,
|
|
1250,
|
|
#MEASURE 2/4
|
|
#BARLINEOFF
|
|
80,
|
|
#MEASURE 4/4
|
|
10
|
|
#GOGOSTART
|
|
202011,
|
|
#BARLINEON
|
|
0221,
|
|
10202012,
|
|
02201220,
|
|
#GOGOEND
|
|
1010,
|
|
1010,
|
|
1010,
|
|
1112,
|
|
1010,
|
|
1212,
|
|
#GOGOSTART
|
|
10102022,
|
|
2112,
|
|
#GOGOEND
|
|
20202220,
|
|
20202250,
|
|
8,
|
|
,
|
|
20202222,
|
|
2220,
|
|
1414,
|
|
2258,
|
|
4343,
|
|
#BARLINEOFF
|
|
0,
|
|
#END
|
|
|
|
COURSE:Easy
|
|
LEVEL:4
|
|
SCOREINIT:
|
|
SCOREDIFF:
|
|
|
|
#START
|
|
#BARLINEOFF
|
|
0,
|
|
#BARLINEON
|
|
1010,
|
|
1011,
|
|
1010,
|
|
1011,
|
|
1022,
|
|
0011,
|
|
1011,
|
|
1011,
|
|
1020,
|
|
1020,
|
|
1020,
|
|
5080,
|
|
1020,
|
|
1020,
|
|
1010,
|
|
5,
|
|
#MEASURE 2/4
|
|
80,
|
|
#MEASURE 4/4
|
|
#GOGOSTART
|
|
10101001,
|
|
0110,
|
|
10101001,
|
|
0220,
|
|
#GOGOEND
|
|
1,
|
|
1010,
|
|
#GOGOSTART
|
|
1010,
|
|
3033,
|
|
00101001,
|
|
0110,
|
|
10101001,
|
|
0220,
|
|
#GOGOEND
|
|
1,
|
|
1010,
|
|
#GOGOSTART
|
|
1010,
|
|
3030,
|
|
#GOGOEND
|
|
2220,
|
|
2225,
|
|
8,
|
|
,
|
|
2220,
|
|
2220,
|
|
2020,
|
|
2250,
|
|
,
|
|
#MEASURE 2/4
|
|
80,
|
|
#MEASURE 4/4
|
|
1010,
|
|
1011,
|
|
1010,
|
|
2022,
|
|
0011,
|
|
0111,
|
|
1010,
|
|
1011,
|
|
1020,
|
|
1020,
|
|
1020,
|
|
5008,
|
|
1011,
|
|
1020,
|
|
1011,
|
|
5,
|
|
#MEASURE 2/4
|
|
80,
|
|
#MEASURE 4/4
|
|
10001001,
|
|
0010,
|
|
10001001,
|
|
0011,
|
|
1,
|
|
1,
|
|
1010,
|
|
1050,
|
|
#MEASURE 2/4
|
|
#BARLINEOFF
|
|
80,
|
|
#MEASURE 4/4
|
|
10
|
|
#GOGOSTART
|
|
101001,
|
|
#BARLINEON
|
|
0110,
|
|
10101001,
|
|
0220,
|
|
#GOGOEND
|
|
1,
|
|
1010,
|
|
1,
|
|
1010,
|
|
1,
|
|
1010,
|
|
#GOGOSTART
|
|
1110,
|
|
1110,
|
|
#GOGOEND
|
|
2220,
|
|
2220,
|
|
,
|
|
,
|
|
2220,
|
|
2220,
|
|
2020,
|
|
2258,
|
|
4040,
|
|
#BARLINEOFF
|
|
0,
|
|
#END
|