//TJADB Project
TITLE:O2
TITLEJA:O2
SUBTITLE:--ORANGE RANGE/Code Geass: Lelouch of the Rebellion R2
BPM:170
WAVE:O2.ogg
OFFSET:-1.633
DEMOSTART:65.162

COURSE:Oni
LEVEL:7
BALLOON:10
SCOREINIT:640
SCOREDIFF:160
#START
300000000000000000200000000000000000200000000000,
300000000000000000200000000000000000200000000000,
300000000000000000200000000000100000100000000000,
100000200000000000100000000000100000100000000000,
300000000000200000000000200000000000000000000000,
300000000000200000100000000000100000100000000000,
300000000000200000200000000000100000000000100000,
200000100000200000100000200200200000100100100000,
300000000000100000200000100000000000100000000000,
100000000000100000200000100000000000100000100100,
100000000000100000200000100000000000100000100100,
100000200000100000100000200000100100100000200000,
100000000000100000200000100000000000100000000000,
100000000000100000200000100000000000100000100100,
100000100000200000100000000000100000200000000000,
300000300000300000300000000000000000400000000000,
100000100000200000000000100000000000200000000000,
100000100000200000000000100000100000200000200000,
100000100000200000000000100000000000200000000000,
100000100000200000000000100000100000200000200000,
100000100000200000000000100000000000200000000000,
100000100000200000000000100000100000200000200000,
100000100000200000000000100100100000200000000000,
300000300000300000300000400000000000400000000000,
100000000000200000100000000000100000200000100000,
100000000000200000100000000000100000200000200000,
100000000000200000100000000000100000200000100000,
100000000000200000100000000000100000200000200000,
100000000000200000100000000000100000200000100000,
100000000000200000100000000000100000200000200000,
100000000000200000100000000000100000200000100000,
100000000000200000100000000000200000100000000000,
100100100000200000100100100000200000100100100000,
200000100100100000200000100100100000200000200000,
100100100000100000100000200000000200000000200000,
100100100000100000100000200000000200000000200000,
100000000000200000100000000000200000100000200000,
100000000000200000100000000000100100200000200000,
100000000000200000100000000000200000100000200000,
100000000000200000100100100000100000100000100000,
100000000000200000100000000000100100100000000000,
000000100000200000100000200000100000200000000000,
100000000000200000100000000000100100100000000000,
000000100000200000000000300000300000300000300000,
000000000000000000000000000000000000300000000000,
#GOGOSTART
100000000000200000100000100100100000200000100000,
100000000000200000100000100100100000200000100000,
100100100000200000100000100100100000200000100000,
100000100000200000100000000000100100200000000000,
100100100000200000200000100100100000200000000000,
100100100000200000100000000000100100200000100000,
100100100000200000100000100100100000200000100000,
300000000000300000300000000000300000000000000000,
100000000000200000100000100100100000200000100000,
100000000000200000100000100100100000200000100000,
100100100000200000100000100100100000200000100000,
100000100000200000100000000000100100200000000000,
100100100000200000200000100100100000200000000000,
100100100000200000100000000000100100200000000000,
100100100000200000100000100100100000200000100000,
300000000000300000300000000000400000400000000000,
700000000000000000000000000000000000800000000000,
100000000000100000000000100000000000100000000000,
100000100000100000200000200000200000100000100000,
100000200000200000100000100000100000200000000000,
#GOGOEND
#MEASURE 2/4
300000000000000000000000,
#END

COURSE:Hard
LEVEL:5
BALLOON:21
SCOREINIT:780
SCOREDIFF:210
#START
300000000000000000000000000000000000000000000000,
300000000000000000000000000000000000000000000000,
300000000000000000000000000000000000000000000000,
100000100000000000100000000000000000000000000000,
100000000000100000000000100000000000000000000000,
100000000000000000100000000000000000000000000000,
100000000000000000100000000000000000000000000000,
100000000000100000100000000000100000000000000000,
100000000000100000200000000000000000100000000000,
100000000000100000200000000000000000100000000000,
100000000000100000200000000000000000100000000000,
100000200000000000100000000000000000000000000000,
100000000000100000200000000000000000100000000000,
100000000000100000200000000000000000100000000000,
100000000000100000200000000000100000200000000000,
300000300000300000300000000000000000000000000000,
100000100000200000000000100000000000200000000000,
100000100000200000000000100000000000000000000000,
100000100000200000000000100000000000200000000000,
100000100000200000000000100000000000000000000000,
100000100000200000000000100000000000200000000000,
100000100000200000000000100000000000000000000000,
100000100000200000000000100000000000200000000000,
300000000000000000000000000000000000000000000000,
100000000000200000100000000000000000200000000000,
100000000000200000100000000000100000100000000000,
100000000000200000100000000000000000200000000000,
100000000000200000100000000000200000200000000000,
100000000000200000100000000000000000200000000000,
100000000000200000100000000000100000100000000000,
100000000000200000100000000000000000200000000000,
100000000000200000100000000000200000200000000000,
100000100000100000100000000000200000200000000000,
100000000000100000000000100000100000100000000000,
100000100000100000000000200000200000200000000000,
100000100000100000000000200000200000200000000000,
100000000000200000100000000000200000200000000000,
100000000000200000100000000000000000000000000000,
100000000000200000100000000000200000200000000000,
100000000000200000100000000000000000000000000000,
100000000000200000100000000000100000100000000000,
000000100000200000000000100000100000100000000000,
100000000000200000100000000000100000100000000000,
000000100000200000000000300000300000300000300000,
000000000000000000000000000000000000000000000000,
#GOGOSTART
100000000000200000100000000000100000200000100000,
100000000000200000100000000000100000200000000000,
100000000000200000100000000000100000200000100000,
100000000000200000100000000000000000000000000000,
100000100000100000100000100000000000000000000000,
100000100000100000100000000000000000000000000000,
100000100000200000100000000000100000200000100000,
100000000000200000100000000000100000000000000000,
100000000000200000100000000000100000200000100000,
100000000000200000100000000000100000200000000000,
100000000000200000100000000000100000200000100000,
100000000000200000100000000000000000000000000000,
100000100000100000100000100000000000000000000000,
100000100000100000100000000000000000000000000000,
100000100000200000100000000000100000200000100000,
100000000000200000100000000000100000100100100000,
100000000000200000100000000000100000200000000000,
100000000000200000000000100000000000200000000000,
700000000000000000000000000000000000000000000000,
000000000000000000000000000000000000000000000008,
#GOGOEND
#END

COURSE:Normal
LEVEL:4
BALLOON:10
SCOREINIT:1030
SCOREDIFF:310
#START
300000000000000000000000000000000000000000000000,
100000000000000000100000000000000000000000000000,
300000000000000000000000000000000000000000000000,
100000000000000000100000000000000000000000000000,
300000000000000000000000000000000000000000000000,
100000000000100000100000000000000000000000000000,
300000000000000000000000100000000000000000000000,
100000000000100000100000000000000000000000000000,
100000000000100000000000100000000000000000000000,
100000000000100000000000200000000000000000000000,
100000000000100000000000100000000000000000000000,
100000000000000000000000200000000000000000000000,
100000000000100000000000100000000000000000000000,
100000000000100000000000200000000000000000000000,
100000000000100000100000000000000000000000000000,
300000000000000000000000000000000000000000000000,
100000000000000000000000200000000000000000000000,
100000000000100000000000100000000000000000000000,
100000000000000000000000200000000000000000000000,
100000000000100000000000100000000000000000000000,
100000000000000000000000200000000000000000000000,
100000000000100000000000100000000000000000000000,
100000000000000000000000200000000000000000000000,
300000000000300000000000000000000000000000000000,
100000000000000000000000100000100000000000000000,
100000000000100000000000100000000000000000000000,
100000000000000000000000100000100000000000000000,
100000000000100000000000100000000000000000000000,
100000000000000000000000100000100000000000000000,
100000000000100000000000100000000000000000000000,
100000000000000000000000100000100000000000000000,
100000000000000000000000200000000000000000000000,
100000100000100000000000000000000000000000000000,
100000000000100000000000200000000000000000000000,
100000100000100000000000000000000000000000000000,
100000100000100000000000000000000000000000000000,
100000000000100000000000200000000000000000000000,
100000000000100000000000200000000000000000000000,
100000000000100000000000200000000000000000000000,
100000000000000000000000000000000000000000000000,
100000000000000000100000000000000000100000000000,
000000000000000000000000100000100000100000000000,
100000000000000000100000000000000000100000000000,
000000000000000000000000300000000000300000000000,
000000000000000000000000000000000000000000000000,
#GOGOSTART
100000000000000000100000000000000000100000000000,
100000000000000000100000000000000000000000000000,
100000000000000000100000000000000000100000000000,
100000000000000000000000000000000000000000000000,
100000000000100000100000100000000000000000000000,
100000000000100000000000000000000000000000000000,
100000000000100000100000100000000000000000000000,
100000000000000000000000000000000000000000000000,
100000000000000000100000000000000000100000000000,
100000000000000000100000000000000000000000000000,
100000000000000000100000000000000000100000000000,
100000000000000000000000000000000000000000000000,
100000000000100000100000100000000000000000000000,
100000000000100000100000000000000000000000000000,
100000000000100000100000000000000000000000000000,
100000000000100000000000100000000000000000000000,
500000000000000000000000800000000000000000000000,
100000000000100000000000100000000000100000000000,
700000000000000000000000000000000000000000000000,
000000000000000000000000000000000000000000000008,
#END

COURSE:Easy
LEVEL:3
BALLOON:5,7
SCOREINIT:820
SCOREDIFF:290
#START
300000000000000000000000000000000000000000000000,
100000000000100000000000100000000000000000000000,
100000000000000000000000100000000000000000000000,
100000000000100000000000100000000000000000000000,
300000000000000000000000000000000000000000000000,
100000000000100000000000100000000000000000000000,
100000000000000000000000100000000000000000000000,
100000000000100000000000100000000000000000000000,
300000000000000000000000100000000000000000000000,
100000000000100000000000100000000000000000000000,
100000000000000000000000100000000000000000000000,
100000000000100000000000100000000000000000000000,
100000000000000000000000100000000000000000000000,
100000000000100000000000100000000000000000000000,
100000000000000000000000100000000000000000000000,
300000000000000000000000000000000000000000000000,
100000000000000000000000100000000000000000000000,
100000000000000000000000000000000000000000000000,
100000000000000000000000100000000000000000000000,
100000000000000000000000000000000000000000000000,
100000000000000000000000100000000000000000000000,
100000000000000000000000000000000000000000000000,
100000000000000000000000100000000000000000000000,
300000000000000000000000000000000000000000000000,
100000000000000000000000100000000000000000000000,
100000000000100000000000100000000000000000000000,
100000000000000000000000100000000000000000000000,
100000000000000000000000000000000000000000000000,
100000000000000000000000100000000000000000000000,
100000000000100000000000100000000000000000000000,
100000000000000000000000100000000000000000000000,
100000000000000000000000000000000000000000000000,
200000000000200000000000000000000000000000000000,
100000000000000000000000200000000000000000000000,
200000000000200000000000000000000000000000000000,
100000000000000000000000200000000000000000000000,
200000000000200000000000000000000000000000000000,
100000000000000000000000200000000000000000000000,
200000000000200000000000000000000000000000000000,
100000000000000000000000000000000000000000000000,
700000000000000000000000000000000000000000000000,
000000000000000000800000000000000000000000000000,
700000000000000000000000000000000000000000000000,
000000000000000000000000000000000000000000800000,
000000000000000000000000000000000000000000000000,
#GOGOSTART
100000000000000000000000000000000000100000000000,
100000000000000000000000000000000000100000000000,
100000000000000000000000100000000000000000000000,
100000000000000000000000000000000000000000000000,
100000000000100000000000100000000000000000000000,
100000000000000000000000200000000000000000000000,
100000000000100000000000100000000000000000000000,
100000000000000000000000000000000000000000000000,
100000000000000000000000000000000000100000000000,
100000000000000000000000000000000000100000000000,
100000000000000000000000100000000000000000000000,
100000000000000000000000000000000000000000000000,
100000000000100000000000100000000000000000000000,
100000000000000000000000200000000000000000000000,
100000000000100000000000100000000000000000000000,
100000000000000000000000200000000000000000000000,
500000000000000000000000800000000000000000000000,
100000000000000000000000100000000000000000000000,
300000000000000000000000000000000000000000000000,
000000000000000000000000000000000000300000000000,
#GOGOEND
#MEASURE 2/4
300000000000000000000000,
#END
