forked from ESE/ESE
337 lines
3.9 KiB
Plaintext
337 lines
3.9 KiB
Plaintext
//TJADB Project
|
|
TITLE:Anata ni Koi wo Shite Mimashita
|
|
TITLEJA:あなたに恋をしてみました
|
|
SUBTITLE:--chay
|
|
BPM:137
|
|
WAVE:Anata ni Koi wo Shite Mimashita.ogg
|
|
OFFSET:-1.963
|
|
DEMOSTART:71.379
|
|
|
|
COURSE:Oni
|
|
LEVEL:6
|
|
BALLOON:5,2,16,2
|
|
SCOREINIT:740
|
|
SCOREDIFF:170
|
|
|
|
|
|
#START
|
|
|
|
|
|
2010200000112010,
|
|
2010200000112010,
|
|
4444,
|
|
70008121,
|
|
|
|
#GOGOSTART
|
|
0010201120102010,
|
|
0010201120002010,
|
|
0010201120102010,
|
|
01200404,
|
|
0000101110002010,
|
|
0010001110000000,
|
|
1000201120002010,
|
|
0010201120004040,
|
|
0000201110102060,
|
|
000000000000000000000000000000000000000000000008,
|
|
|
|
#GOGOEND
|
|
,
|
|
10210120,
|
|
1000201000102220,
|
|
10210120,
|
|
1000201000102220,
|
|
10210120,
|
|
1000201000102220,
|
|
1000201011102010,
|
|
0040004000402220,
|
|
10210120,
|
|
1000201000102220,
|
|
10210120,
|
|
1000201000102220,
|
|
30030030,
|
|
3000202220102050,
|
|
000000000000000000000000000000000000000000000008,
|
|
00033020,
|
|
1010201110002011,
|
|
1010201110102000,
|
|
1010201110102010,
|
|
01210708,
|
|
0000400040000011,
|
|
12020101,
|
|
2011201021102070,
|
|
,
|
|
8000000000102011,
|
|
|
|
#GOGOSTART
|
|
2010201120102011,
|
|
2010201120002011,
|
|
2010201120102011,
|
|
2010200000202220,
|
|
0010111000304000,
|
|
40430120,
|
|
1000201000102002,
|
|
0070000080102011,
|
|
2010201120102011,
|
|
2010201120002011,
|
|
2010201120102011,
|
|
21200404,
|
|
0000101110102010,
|
|
0010201110102000,
|
|
1010201120002011,
|
|
1010201120004040,
|
|
0000201110102060,
|
|
,
|
|
000000000000000008000000000000000000000000000000,
|
|
|
|
#GOGOEND
|
|
|
|
|
|
#END
|
|
|
|
|
|
COURSE:Hard
|
|
LEVEL:4
|
|
BALLOON:5,3,13,2
|
|
SCOREINIT:640
|
|
SCOREDIFF:160
|
|
|
|
|
|
#START
|
|
|
|
|
|
2010200000111010,
|
|
2010200000111010,
|
|
4444,
|
|
70008112,
|
|
|
|
#GOGOSTART
|
|
01211021,
|
|
01212021,
|
|
01211021,
|
|
01200404,
|
|
00111022,
|
|
0020002220000000,
|
|
20112022,
|
|
02112044,
|
|
0000201110102060,
|
|
000000000000000000000000000000000000000000000008,
|
|
|
|
#GOGOEND
|
|
,
|
|
10210020,
|
|
10210120,
|
|
10210020,
|
|
10210120,
|
|
10210020,
|
|
10210120,
|
|
10210121,
|
|
04040400,
|
|
10210020,
|
|
10210120,
|
|
10210020,
|
|
10210120,
|
|
30030030,
|
|
30221125,
|
|
000000000000000000000000000000000000000000000008,
|
|
00033020,
|
|
1010201110002000,
|
|
1010201110002000,
|
|
1000201110102010,
|
|
01210700,
|
|
80404001,
|
|
12020102,
|
|
11221029,
|
|
,
|
|
80000112,
|
|
|
|
#GOGOSTART
|
|
01211021,
|
|
01212021,
|
|
01211021,
|
|
0010100000202220,
|
|
0010111000304000,
|
|
40430120,
|
|
1000101000202002,
|
|
07080112,
|
|
0010201110002010,
|
|
01212021,
|
|
0010201110002010,
|
|
01100404,
|
|
0000101110002020,
|
|
0020002220000000,
|
|
20112022,
|
|
02112044,
|
|
0000201110102060,
|
|
,
|
|
000000000000000008000000000000000000000000000000,
|
|
|
|
#GOGOEND
|
|
|
|
|
|
#END
|
|
|
|
|
|
COURSE:Normal
|
|
LEVEL:4
|
|
BALLOON:4,20,10
|
|
SCOREINIT:840
|
|
SCOREDIFF:220
|
|
|
|
|
|
#START
|
|
|
|
|
|
1100,
|
|
1100,
|
|
3333,
|
|
78,
|
|
|
|
#GOGOSTART
|
|
10111010,
|
|
2220,
|
|
10111010,
|
|
2200,
|
|
3302,
|
|
3302,
|
|
10111020,
|
|
10111020,
|
|
30003006,
|
|
000000000000000000000000000000000000000000000008,
|
|
|
|
#GOGOEND
|
|
,
|
|
10110020,
|
|
10110020,
|
|
10220020,
|
|
10220020,
|
|
10110020,
|
|
10110020,
|
|
10220020,
|
|
03030300,
|
|
10110020,
|
|
10110020,
|
|
10220020,
|
|
10220020,
|
|
500000000000000000000000000000000000000000000008,
|
|
0700,
|
|
,
|
|
0800,
|
|
10111000,
|
|
10111000,
|
|
11,
|
|
10111000,
|
|
00303005,
|
|
000000000000000000000008000000000000000000000000,
|
|
10101009,
|
|
,
|
|
8,
|
|
|
|
#GOGOSTART
|
|
10111010,
|
|
2220,
|
|
10111010,
|
|
2220,
|
|
3302,
|
|
3302,
|
|
33,
|
|
500000000000000000000008000000000000000000000000,
|
|
10111010,
|
|
2220,
|
|
10111010,
|
|
2200,
|
|
3302,
|
|
3302,
|
|
10111020,
|
|
10111020,
|
|
30003006,
|
|
,
|
|
000000000000000008000000000000000000000000000000,
|
|
|
|
#GOGOEND
|
|
|
|
|
|
#END
|
|
|
|
|
|
COURSE:Easy
|
|
LEVEL:3
|
|
BALLOON:3,10,10
|
|
SCOREINIT:800
|
|
SCOREDIFF:240
|
|
|
|
|
|
#START
|
|
|
|
|
|
1,
|
|
1,
|
|
3333,
|
|
78,
|
|
|
|
#GOGOSTART
|
|
11,
|
|
1110,
|
|
11,
|
|
2200,
|
|
3300,
|
|
3300,
|
|
2220,
|
|
2220,
|
|
30003006,
|
|
000000000000000000000000000000000000000000000008,
|
|
|
|
#GOGOEND
|
|
,
|
|
1101,
|
|
0101,
|
|
1101,
|
|
0101,
|
|
1101,
|
|
0101,
|
|
58,
|
|
,
|
|
1101,
|
|
0101,
|
|
1101,
|
|
0101,
|
|
500000000000000000000000000000000000000000000008,
|
|
0700,
|
|
,
|
|
0800,
|
|
11,
|
|
1110,
|
|
22,
|
|
2220,
|
|
00303005,
|
|
08,
|
|
10101009,
|
|
,
|
|
8,
|
|
|
|
#GOGOSTART
|
|
11,
|
|
1110,
|
|
11,
|
|
2200,
|
|
3300,
|
|
3300,
|
|
33,
|
|
58,
|
|
11,
|
|
1110,
|
|
11,
|
|
2200,
|
|
3300,
|
|
3300,
|
|
2220,
|
|
2220,
|
|
30003006,
|
|
,
|
|
000000000000000008000000000000000000000000000000,
|
|
|
|
#GOGOEND
|
|
|
|
|
|
#END
|
|
|