Files
2023-06-15 19:00:23 -05:00

408 lines
16 KiB
Plaintext

//TJADB Project
TITLE:Apollo
TITLEJA:アポロ
SUBTITLE:--Porno Graffitti
BPM:170
WAVE:Apollo.ogg
OFFSET:-1.637
DEMOSTART:55.854
COURSE:Edit
LEVEL:8
BALLOON:15
SCOREINIT:610
SCOREDIFF:158
#START
100000000000200000200000000000200000000000200000,
100000200000200000200000200000000000200000000000,
100000000000200000200000000000200000000000200000,
100000200000200000200000200000000000000000000000,
100000000000200000200000000000200000000000200000,
100000000000200000200000000000200000000000200000,
100000000000200000100000000000200000000000200000,
300000000000300000000000600000000000000000000000,
#BARLINEOFF
#BPMCHANGE 190.1
000000000000000000000000000000000008000000000000,
000000200000200000100000200000200000100100200000,
#BARLINEON
#MEASURE 4/4
100100100100200000100000200200100000200000000000,
100100100100200000100000000000100100200000200000,
100100100100200000100000200200100000200000000000,
100100100100200000100000000000100100200000200000,
100100100100200000100000200200100000200000000000,
100100100100200000100000000000100100200000200000,
100100100100200000100000200200100000200000000000,
100100100100200000100000000000100100200200200000,
100000000000200000000000100100100000200000100000,
200200100000200200100000100100200000100100200000,
100000000000200000000000100100100000200000100000,
200200100000200200100000100100200000100100200000,
100000000000200000200000100100100000200000000000,
100100100000200000200000100100100000200000200200,
100000200200200000100000200200200000100000200000,
000000200200200000100000200200200000100000000000,
100000000000200000000000100100100000200000100000,
200200100000200200100000200200100100200000200000,
100000000000200000000000100100100000200000100000,
200200100000200200100000200200100100200000200000,
100100100100200000200000100100200000100000000000,
100100100100200000200000100100200000200000000000,
100000100100200000200000100100100000200200200000,
100000100100200000200000100100100000200000000000,
100000000000200000200200100000100000200000100000,
000000100100200000000000100200100000200000200200,
100000000000200000200200100000100000200000100000,
000000100100200000000000100200100000400000000000,
000000100100100000200200100100100000200000200200,
100000100100100000200200100100100000200000000000,
300000400000000000300000400000000000300000400000,
000000300000400000000000400000000000000000000000,
#GOGOSTART
100100100100200000100100100100200000200000100100,
200000100100200000100000200200100100200000000000,
100200100100200000100200100100200000200000100100,
200000100100200000100000200200100100200000000000,
100000200200100000100100200000100000200000200000,
100000200200100000100100200000100000200000200200,
100100100000200200100100100000200000100200100000,
300000000000300000000000300000200200200000000000,
100100100100200000100100100100200000200000100100,
200000100100200000100000200200100100200000000000,
100200100100200000100200100100200000200000100100,
200000100100200000100000200200100100200000000000,
300000200000200000200000300000200200200000200000,
300000200000200200200000300000200200200200200000,
100000200200100000100000200200100100200000300000,
300000400000400000000000300000200200100100200200,
700000000000000000000000000000000000000000000008,
#GOGOEND
#END
COURSE:Oni
LEVEL:2
BALLOON:20
SCOREINIT:980
SCOREDIFF:308
NOTESDESIGNER3:Sasaoka
#START
200000000000200000200000000000200000000000200000,
000000200000200000000000200000000000200000000000,
200000000000200000200000000000200000000000200000,
000000200000200000000000200000000000000000000000,
100000000000100000200000000000200000000000000000,
100000000000100000200000000000200000000000000000,
100000000000100000100000000000200000000000200000,
300000000000300000000000600000000000000000000000,
#BARLINEOFF
#BPMCHANGE 190.1
000000000000000000000000000000000008000000000000,
000000000000000000000000000000000000000000000000,
#BARLINEON
#MEASURE 4/4
100000000000100000100000000000200000000000000000,
100000000000200000100000000000200000000000000000,
100000000000100000100000000000200000000000000000,
100000000000200000100000000000200000100000000000,
100000000000100000100000000000200000000000000000,
100000000000200000100000000000200000000000000000,
100000000000200000100000000000200000000000000000,
100000000000200000100000000000200000100000000000,
100000000000100000000000100000000000200000100000,
000000100000200000000000100000000000200000000000,
100000000000000000000000100000000000200000100000,
000000100000200000000000100000000000200000000000,
100000000000000000000000100000000000200000100000,
100000000000200000100000100000000000200000000000,
500000000000000000000000000000000000000008000000,
000000000000000000000000000000000000100000000000,
100000000000100000000000100000000000200000100000,
000000100000200000000000100000000000200000000000,
100000000000100000000000100000000000200000100000,
000000100000200000000000100000000000200000000000,
100000000000000000000000100000000000200000000000,
100000000000200000000000100000000000500000000000,
000000000000000000000008000000000000000000000000,
000000000000000000000000000000000000100000000000,
100000000000200000000000100000000000200000100000,
000000100000200000000000200000000000000000000000,
100000000000200000000000100000000000200000100000,
000000100000200000000000200000000000100000000000,
000000100000100000000000100000000000200000000000,
100000000000100000100000000000000000200000000000,
100000200000000000100000200000000000100000200000,
000000100000200000100000200000000000000000000000,
#GOGOSTART
100000000000100000100000000000200000000000100000,
000000100000200000200000100000000000200000000000,
100000000000100000100000000000100000000000200000,
000000100000200000100000200000000000000000000000,
100000000000100000100000000000200000000000000000,
100000000000100000100000000000200000000000200000,
100000000000100000200000000000200000000000200000,
300000000000300000000000300000000000000000000000,
100000000000100000100000000000200000000000100000,
000000100000200000100000100000200000200000000000,
100000000000100000100000000000200000000000200000,
000000100000200000100000200000000000000000000000,
300000000000100000200000300000000000100000200000,
300000000000100000200000300000000000000000000000,
100000000000200000100000000000200000100000000000,
300000300000300000000000700000000000000000000000,
000000000000000000000000000000000000000000000008,
#GOGOEND
#END
COURSE:Hard
LEVEL:4
BALLOON:16
SCOREINIT:980
SCOREDIFF:315
#START
200000000000200000200000000000200000000000200000,
000000200000200000000000200000000000200000000000,
200000000000200000200000000000200000000000200000,
000000200000200000000000200000000000000000000000,
100000000000200000200000000000200000000000000000,
100000000000200000200000000000200000000000000000,
100000000000100000100000000000100000000000000000,
#MEASURE 12/4
300000000000300000000000600000000000000000000000
#BPMCHANGE 190
000000000000000000000000000000800000000000000000000000000000000000000000000000000000000000000000,
#MEASURE 4/4
100000000000100000100000000000100000000000000000,
100000000000100000100000000000200000000000000000,
100000000000100000100000000000100000000000000000,
100000000000100000100000000000200000000000000000,
100000000000100000100000000000100000000000000000,
100000000000100000100000000000200000000000000000,
100000000000100000100000000000100000000000000000,
100000000000100000100000000000200000000000000000,
100000000000100000000000100000000000100000100000,
000000100000100000000000100000000000100000000000,
200000000000000000000000100000000000100000100000,
000000100000100000000000100000000000100000000000,
200000000000000000000000100000000000200000000000,
100000000000000000000000100000000000200000000000,
500000000000000000000000000000000000800000000000,
000000000000000000000000000000000000100000000000,
100000000000100000000000100000000000100000100000,
000000100000100000000000100000000000200000000000,
100000000000000000000000100000000000100000100000,
000000100000100000000000100000000000200000000000,
100000000000000000000000100000000000200000000000,
100000000000100000000000200000000000500000000000,
000000000000000000800000000000000000000000000000,
000000000000000000000000000000000000100000000000,
100000000000100000000000100000000000100000100000,
000000100000100000000000200000000000000000000000,
100000000000100000000000100000000000100000100000,
000000100000100000000000200000000000100000000000,
000000100000100000000000100000000000200000000000,
100000000000100000100000000000000000200000000000,
100000100000000000100000100000000000100000100000,
000000100000100000100000200000000000000000000000,
#GOGOSTART
100000000000100000100000000000200000000000100000,
000000100000100000100000100000000000200000000000,
100000000000100000100000000000200000000000100000,
000000100000100000100000200000000000000000000000,
100000000000100000100000000000200000000000000000,
100000000000100000100000000000200000000000000000,
100000000000100000100000000000200000000000000000,
300000000000300000000000300000000000000000000000,
100000000000100000100000000000200000000000100000,
000000100000100000100000100000000000200000000000,
100000000000100000100000000000200000000000200000,
000000100000100000100000200000000000000000000000,
300000000000000000000000300000000000000000000000,
300000000000000000000000300000000000000000000000,
100000000000100000100000000000200000200000000000,
300000300000300000000000700000000000000000000000,
000000000000000000000000000000000000000000800000,
#GOGOEND
#END
COURSE:Normal
LEVEL:4
BALLOON:12,12
SCOREINIT:1200
SCOREDIFF:510
#START
200000000000000000000000000000000000000000000000,
200000000000000000000000200000000000000000000000,
200000000000000000000000000000000000000000000000,
200000000000000000000000200000000000000000000000,
100000000000000000000000000000000000000000000000,
100000000000000000000000000000000000000000000000,
100000000000000000000000100000000000000000000000,
#MEASURE 12/4
300000000000300000000000600000000000000000000000
#BPMCHANGE 190
000000000000000000000000000000800000000000000000000000000000000000000000000000000000000000000000,
#MEASURE 4/4
100000000000000000000000000000000000000000000000,
200000000000000000000000000000000000100000000000,
100000000000000000000000000000000000000000000000,
200000000000000000000000000000000000100000000000,
100000000000000000000000000000000000000000000000,
200000000000000000000000000000000000100000000000,
100000000000000000000000000000000000000000000000,
200000000000000000000000000000000000100000000000,
100000000000000000000000100000000000000000000000,
100000000000000000000000100000000000100000000000,
100000000000000000000000100000000000000000000000,
100000000000000000000000100000000000100000000000,
100000000000000000000000100000000000000000000000,
100000000000000000000000100000000000000000000000,
500000000000000000000000000000000000800000000000,
000000000000000000000000000000000000100000000000,
100000000000000000000000100000000000000000000000,
100000000000000000000000200000000000200000000000,
200000000000000000000000100000000000000000000000,
100000000000000000000000200000000000200000000000,
200000000000000000000000100000000000100000000000,
100000000000100000000000100000000000500000000000,
000000000000800000000000000000000000000000000000,
000000000000000000000000000000000000100000000000,
100000000000000000000000100000000000000000100000,
000000000000200000000000200000000000000000000000,
100000000000000000000000100000000000000000100000,
000000000000200000000000200000000000500000000000,
000000800000000000000000100000000000100000000000,
100000000000000000200000000000000000200000000000,
700000000000000000000000000000000000000000000000,
000000000000000000800000000000000000000000000000,
#GOGOSTART
100000000000100000100000000000200000000000100000,
000000100000100000000000100000000000000000000000,
100000000000100000100000000000200000000000100000,
000000100000100000000000100000000000000000000000,
100000000000100000100000000000200000000000000000,
100000000000100000100000000000200000000000000000,
100000000000100000100000000000200000000000000000,
300000000000300000000000300000000000000000000000,
100000000000100000100000000000200000000000100000,
000000100000100000000000100000000000000000000000,
100000000000100000100000000000200000000000100000,
000000100000100000000000100000000000000000000000,
300000000000000000000000300000000000000000000000,
300000000000000000000000300000000000000000000000,
100000000000100000100000000000100000100000000000,
100000100000100000000000700000000000000000000000,
000000000000000000000000000000000000000000800000,
#GOGOEND
#END
COURSE:Easy
LEVEL:2
BALLOON:10,10
SCOREINIT:1190
SCOREDIFF:865
#START
200000000000000000000000000000000000000000000000,
000000000000000000000000000000000000000000000000,
200000000000000000000000000000000000000000000000,
200000000000000000000000200000000000000000000000,
100000000000000000000000000000000000000000000000,
100000000000000000000000000000000000000000000000,
100000000000000000000000000000000000000000000000,
#MEASURE 12/4
300000000000300000000000600000000000000000000000
#BPMCHANGE 190
000000000000000000000000000000800000000000000000000000000000000000000000000000000000000000000000,
#MEASURE 4/4
100000000000000000000000000000000000000000000000,
200000000000000000000000000000000000000000000000,
100000000000000000000000000000000000000000000000,
200000000000000000000000000000000000000000000000,
100000000000000000000000000000000000000000000000,
200000000000000000000000000000000000000000000000,
100000000000000000000000000000000000000000000000,
200000000000000000000000000000000000000000000000,
100000000000000000000000000000000000000000000000,
100000000000000000000000100000000000000000000000,
100000000000000000000000000000000000000000000000,
100000000000000000000000100000000000000000000000,
100000000000000000000000100000000000000000000000,
100000000000000000000000100000000000000000000000,
500000000000000000000000000000000000800000000000,
000000000000000000000000000000000000000000000000,
100000000000000000000000000000000000000000000000,
100000000000000000000000100000000000000000000000,
100000000000000000000000000000000000000000000000,
100000000000000000000000100000000000000000000000,
200000000000000000000000200000000000000000000000,
200000000000000000000000200000000000500000000000,
000000000000800000000000000000000000000000000000,
000000000000000000000000000000000000000000000000,
100000000000000000000000100000000000000000000000,
200000000000000000000000000000000000000000000000,
100000000000000000000000100000000000000000000000,
200000000000000000000000000000000000500000000000,
000000000000000000000000800000000000000000000000,
300000000000000000000000000000000000000000000000,
700000000000000000000000000000000000000000000000,
000000000000000000800000000000000000000000000000,
#GOGOSTART
100000000000000000000000000000000000000000000000,
100000000000000000000000100000000000000000000000,
200000000000000000000000000000000000000000000000,
200000000000000000000000200000000000000000000000,
300000000000000000000000000000000000000000000000,
400000000000000000000000000000000000000000000000,
100000000000000000000000100000000000000000000000,
300000000000300000000000300000000000000000000000,
100000000000000000000000000000000000000000000000,
100000000000000000000000100000000000000000000000,
200000000000000000000000000000000000000000000000,
200000000000000000000000200000000000000000000000,
300000000000000000000000300000000000000000000000,
300000000000000000000000300000000000000000000000,
600000000000000000000000800000000000000000000000,
300000000000300000000000700000000000000000000000,
100000000000000000000000000000000000800000000000,
#GOGOEND
#END